<?xml version="1.0" standalone="no"?>
<!DOCTYPE svg PUBLIC "-//W3C//DTD SVG 1.1//EN" "http://www.w3.org/Graphics/SVG/1.1/DTD/svg11.dtd" >
<svg xmlns="http://www.w3.org/2000/svg" xmlns:xlink="http://www.w3.org/1999/xlink" version="1.1">
<metadata>
Created by FontForge 20201107 at Thu Sep 30 21:20:51 2021
 By 
Copyright 2016 The Mulish Project Authors (https://github.com/googlefonts/mulish)
</metadata>
<defs>
<font id="Mulish-Regular" horiz-adv-x="600" >
  <font-face 
    font-family="Mulish"
    font-weight="400"
    font-stretch="normal"
    units-per-em="1000"
    panose-1="0 0 0 0 0 0 0 0 0 0"
    ascent="800"
    descent="-200"
    x-height="502"
    cap-height="705"
    bbox="-252 -270 1292 1043"
    underline-thickness="44"
    underline-position="-107"
    unicode-range="U+000D-FB02"
  />
<missing-glyph horiz-adv-x="500" 
 />
    <glyph glyph-name="fi" unicode="fi" horiz-adv-x="574" 
d="M105 0v439h-98v63h120l-22 -21v84q0 85 42.5 130t121.5 45q19 0 40.5 -3.5t36.5 -9.5v-67q-12 5 -29.5 8.5t-35.5 3.5q-47 0 -71 -28t-24 -86v-73l-13 17h322v-502h-81v439h-228v-439h-81zM405 616v91h100v-91h-100z" />
    <glyph glyph-name="fl" unicode="fl" horiz-adv-x="576" 
d="M105 0v439h-98v63h120l-22 -21v84q0 85 43 130t123 45q20 0 41.5 -3.5t35.5 -9.5v-67q-12 5 -29.5 8.5t-35.5 3.5q-31 0 -53 -12.5t-33 -37.5t-11 -64v-73l-13 17h153v-63h-140v-439h-81zM417 0v736h81v-736h-81z" />
    <glyph glyph-name=".notdef" horiz-adv-x="500" 
 />
    <glyph glyph-name="uni0000" horiz-adv-x="0" 
 />
    <glyph glyph-name="uni0000" horiz-adv-x="0" 
 />
    <glyph glyph-name="nonmarkingreturn" horiz-adv-x="333" 
 />
    <glyph glyph-name="CR" unicode="&#xd;" horiz-adv-x="261" 
 />
    <glyph glyph-name="space" unicode=" " horiz-adv-x="261" 
 />
    <glyph glyph-name="exclam" unicode="!" horiz-adv-x="228" 
d="M89 184l-25 521h100l-25 -521h-50zM63 0v102h102v-102h-102z" />
    <glyph glyph-name="quotedbl" unicode="&#x22;" horiz-adv-x="392" 
d="M84 428l-21 277h95l-19 -277h-55zM255 428l-21 277h95l-19 -277h-55z" />
    <glyph glyph-name="numbersign" unicode="#" 
d="M86 0l37 182h-93v59h103l48 231h-130v59h141l35 174h64l-35 -174h158l35 174h64l-35 -174h92v-59h-104l-47 -231h131v-59h-142l-37 -182h-65l37 182h-157l-35 -182h-65zM198 241h157l47 231h-158z" />
    <glyph glyph-name="dollar" unicode="$" 
d="M276 -115v127l18 -17q-72 1 -136 21.5t-112 62.5l30 66q48 -39 101 -58t124 -19q86 0 128 33.5t42 86.5q0 43 -30.5 68.5t-100.5 40.5l-100 21q-91 20 -135 65.5t-44 120.5q0 58 28.5 103.5t79.5 72t119 29.5l-12 -14v125h68v-125l-13 14q53 -2 108 -23t93 -63l-28 -64
q-40 41 -89 59.5t-109 18.5q-76 0 -121 -36t-45 -95q0 -46 28.5 -74t92.5 -41l100 -22q97 -20 144 -62.5t47 -114.5q0 -57 -29 -99.5t-79 -67t-116 -29.5l16 17v-128h-68z" />
    <glyph glyph-name="percent" unicode="%" horiz-adv-x="937" 
d="M296 0h-73l419 705h73zM225 282q-81 0 -127.5 57.5t-46.5 158.5q0 102 47 158.5t127 56.5q81 0 127.5 -56.5t46.5 -158.5q0 -101 -46.5 -158.5t-127.5 -57.5zM225 340q49 0 76.5 39.5t27.5 118.5q0 80 -27.5 119t-76.5 39q-48 0 -75.5 -39t-27.5 -119t27.5 -119t75.5 -39
zM713 -9q-82 0 -128.5 57t-46.5 160q0 102 47 158t128 56t127.5 -56.5t46.5 -157.5q0 -102 -46.5 -159.5t-127.5 -57.5zM713 49q48 0 75.5 39.5t27.5 119.5q0 79 -27.5 118t-75.5 39q-49 0 -76 -39t-27 -118q0 -81 27 -120t76 -39z" />
    <glyph glyph-name="ampersand" unicode="&#x26;" horiz-adv-x="671" 
d="M652 -9q-46 21 -86 51.5t-68 59.5l20 -1q-43 -52 -104 -81t-133 -29t-123.5 22.5t-79 62.5t-27.5 93q0 69 40 117t114 96l33 21l-12 -15q-47 50 -68.5 89.5t-21.5 81.5q0 46 22 81t61.5 54.5t93.5 19.5q68 0 113.5 -38.5t45.5 -104.5q0 -36 -14.5 -67.5t-48.5 -62
t-92 -66.5l2 19l194 -210h-18q26 41 40.5 101.5t16.5 127.5h71q-2 -83 -23 -154.5t-56 -126.5l-2 24q26 -28 63 -56.5t80 -48.5zM284 57q60 0 106.5 24t81.5 70l-2 -23l-217 232l31 -1l-31 -19q-42 -28 -69 -53t-40 -52t-13 -61q0 -55 39.5 -86t113.5 -31zM313 653
q-45 0 -73 -25.5t-28 -67.5q0 -22 7.5 -41t25.5 -41.5t48 -56.5l-22 -3q69 42 100.5 75.5t31.5 73.5q0 39 -24.5 62.5t-65.5 23.5z" />
    <glyph glyph-name="quotesingle" unicode="'" horiz-adv-x="221" 
d="M84 428l-21 277h95l-19 -277h-55z" />
    <glyph glyph-name="parenleft" unicode="(" horiz-adv-x="318" 
d="M223 -180q-41 75 -68 146.5t-39.5 144.5t-12.5 152t12.5 152t39.5 144.5t68 145.5h68q-51 -112 -77.5 -221.5t-26.5 -220.5q0 -110 26.5 -220.5t77.5 -222.5h-68z" />
    <glyph glyph-name="parenright" unicode=")" horiz-adv-x="318" 
d="M94 -180h-67q51 112 77.5 222t26.5 220q0 111 -26.5 221t-77.5 222h67q43 -74 69.5 -145.5t39 -145t12.5 -152.5q0 -78 -12.5 -151.5t-39 -145t-69.5 -145.5z" />
    <glyph glyph-name="asterisk" unicode="*" horiz-adv-x="454" 
d="M137 364l-50 36l98 127l-154 45l20 59l150 -54l-6 159h63l-5 -160l151 55l19 -59l-153 -45l98 -127l-51 -36l-89 133z" />
    <glyph glyph-name="plus" unicode="+" 
d="M268 38v218h-215v62h215v213h64v-213h215v-62h-215v-218h-64z" />
    <glyph glyph-name="comma" unicode="," horiz-adv-x="228" 
d="M105 -114l-38 29q27 28 35.5 52.5t8.5 49.5l18 -17h-66v102h102v-72q0 -40 -13 -75.5t-47 -68.5z" />
    <glyph glyph-name="hyphen" unicode="-" horiz-adv-x="428" 
d="M72 241v67h285v-67h-285z" />
    <glyph glyph-name="period" unicode="." horiz-adv-x="228" 
d="M63 0v102h102v-102h-102z" />
    <glyph glyph-name="slash" unicode="/" horiz-adv-x="286" 
d="M47 -55h-70l262 803h70z" />
    <glyph glyph-name="zero" unicode="0" 
d="M300 -9q-120 0 -184 93t-64 269q0 177 64 269t184 92q121 0 184.5 -92t63.5 -268q0 -177 -64 -270t-184 -93zM300 63q84 0 125 71t41 220q0 150 -41 219.5t-125 69.5q-83 0 -124.5 -70t-41.5 -219t41.5 -220t124.5 -71z" />
    <glyph glyph-name="one" unicode="1" 
d="M127 0v71h166v563h44l-194 -121v83l173 109h60v-634h156v-71h-405z" />
    <glyph glyph-name="two" unicode="2" 
d="M86 0v62l250 261q49 51 73.5 97.5t24.5 96.5q0 61 -38 92.5t-110 31.5q-56 0 -103.5 -19.5t-91.5 -61.5l-30 65q40 40 102 64.5t131 24.5q107 0 165 -49.5t58 -140.5q0 -67 -32.5 -127.5t-94.5 -124.5l-221 -224v23h378v-71h-461z" />
    <glyph glyph-name="three" unicode="3" 
d="M296 -9q-71 0 -136 22t-109 63l31 64q49 -40 101 -58t112 -18q79 0 120 33.5t41 98.5q0 62 -42 94.5t-123 32.5h-106v69h99q70 0 111 36t41 98q0 56 -37.5 85.5t-107.5 29.5q-114 0 -197 -81l-31 65q41 42 103 65.5t130 23.5q104 0 163 -48t59 -133q0 -65 -37 -111.5
t-100 -63.5v11q75 -12 116 -59.5t41 -119.5q0 -92 -64.5 -145.5t-177.5 -53.5z" />
    <glyph glyph-name="four" unicode="4" 
d="M386 0v153h-336v60l349 492h68v-485h108v-67h-108v-153h-81zM386 220v387h22l-290 -408v21h268z" />
    <glyph glyph-name="five" unicode="5" 
d="M313 -9q-46 0 -90 10t-82.5 29t-67.5 46l31 64q49 -39 100 -57.5t109 -18.5q76 0 119 41t43 108q0 69 -41 113t-114 44q-52 0 -93 -20.5t-71 -63.5h-60v419h418v-70h-338v-281h-22q27 42 74.5 64.5t107.5 22.5q68 0 117.5 -28t76.5 -78t27 -117t-29.5 -118.5t-84 -80
t-130.5 -28.5z" />
    <glyph glyph-name="six" unicode="6" 
d="M323 -9q-128 0 -197.5 90.5t-69.5 253.5q0 122 35 206.5t100 128.5t157 44q55 0 111 -22.5t92 -62.5l-30 -64q-38 39 -83 57.5t-91 18.5q-102 0 -156.5 -72.5t-54.5 -217.5v-93h-9q7 57 34.5 98.5t72.5 63.5t100 22q64 0 113 -28t77 -78.5t28 -115.5q0 -66 -29 -118
t-81 -81.5t-119 -29.5zM317 61q46 0 81.5 19.5t55 55t19.5 81.5t-19.5 81t-55 55t-81.5 20t-81 -20t-54.5 -55t-19.5 -81t19.5 -81.5t54.5 -55t81 -19.5z" />
    <glyph glyph-name="seven" unicode="7" 
d="M113 0l347 670v-36h-394v71h469v-62l-331 -643h-91z" />
    <glyph glyph-name="eight" unicode="8" 
d="M300 -9q-121 0 -187 51.5t-66 144.5q0 73 45 121.5t119 58.5v-15q-67 14 -107 61.5t-40 112.5q0 89 63 138.5t173 49.5q111 0 174 -49.5t63 -138.5q0 -65 -37.5 -113t-104.5 -60v14q73 -10 116 -58.5t43 -121.5q0 -93 -66 -144.5t-188 -51.5zM300 59q88 0 131.5 33
t43.5 100q0 66 -43.5 98.5t-131.5 32.5t-131.5 -32.5t-43.5 -98.5q0 -67 44 -100t131 -33zM300 391q76 0 116.5 34t40.5 94t-40.5 93.5t-116.5 33.5t-116.5 -33.5t-40.5 -93.5t40.5 -94t116.5 -34z" />
    <glyph glyph-name="nine" unicode="9" 
d="M253 -9q-55 0 -111 23.5t-93 61.5l31 65q38 -39 83 -58t91 -19q101 0 155.5 72.5t54.5 217.5v93h10q-6 -56 -34.5 -98t-73 -64t-99.5 -22q-64 0 -113.5 28t-77.5 79t-28 115q0 67 29.5 118.5t81 81t118.5 29.5q129 0 198.5 -90t69.5 -254q0 -121 -35 -206t-100 -129
t-157 -44zM284 332q46 0 81 20t54.5 55t19.5 81q0 47 -19.5 82t-54.5 55t-81 20t-81.5 -20t-55 -55t-19.5 -82q0 -46 19.5 -81t55 -55t81.5 -20z" />
    <glyph glyph-name="colon" unicode=":" horiz-adv-x="228" 
d="M63 400v102h102v-102h-102zM63 0v102h102v-102h-102z" />
    <glyph glyph-name="semicolon" unicode=";" horiz-adv-x="228" 
d="M105 -114l-38 29q27 28 35.5 52.5t8.5 49.5l26 -17h-74v102h102v-72q0 -40 -13 -75.5t-47 -68.5zM63 400v102h102v-102h-102z" />
    <glyph glyph-name="less" unicode="&#x3c;" 
d="M547 34l-494 221v64l494 221v-69l-461 -204v40l461 -203v-70z" />
    <glyph glyph-name="equal" unicode="=" 
d="M53 356v62h494v-62h-494zM53 157v61h494v-61h-494z" />
    <glyph glyph-name="greater" unicode="&#x3e;" 
d="M54 34v70l460 203v-40l-460 204v69l493 -221v-64z" />
    <glyph glyph-name="question" unicode="?" horiz-adv-x="448" 
d="M172 184v29q0 51 19.5 95.5t69.5 100.5q39 43 55 75.5t16 66.5q0 43 -31 67.5t-86 24.5q-39 0 -75 -10.5t-69 -28.5v75q33 17 72.5 26t79.5 9q57 0 100 -18.5t67.5 -53t24.5 -84.5q0 -32 -10 -61.5t-31 -59t-54 -64.5q-49 -50 -69 -87.5t-24 -76.5l-3 -25h-52zM146 0v102
h103v-102h-103z" />
    <glyph glyph-name="at" unicode="@" horiz-adv-x="969" 
d="M496 -163q-98 0 -178 30.5t-137 87.5t-88 137.5t-31 179.5t32 180t92 139.5t142 90.5t181 32q120 0 209.5 -46t139.5 -129.5t50 -195.5q0 -86 -25 -150t-69 -99t-104 -35t-91 34.5t-26 93.5l18 -5q-26 -60 -72.5 -91.5t-99.5 -31.5q-79 0 -122.5 48.5t-43.5 133.5
q0 74 28.5 131.5t78.5 90t114 32.5q57 0 92.5 -27t46.5 -76h-12l17 94h66l-46 -259q-2 -13 -3.5 -25t-1.5 -22q0 -33 15.5 -50t46.5 -17q40 0 70 29t47 80.5t17 120.5q0 96 -42 166.5t-118.5 109t-179.5 38.5q-115 0 -201.5 -48t-134 -134.5t-47.5 -202.5q0 -118 45 -203
t128.5 -130.5t196.5 -45.5q83 0 151 25.5t112 72.5l33 -49q-49 -51 -126.5 -78t-169.5 -27zM448 117q46 0 82 26.5t56.5 73.5t20.5 107q0 57 -25 85t-79 28q-46 0 -82.5 -25t-57.5 -69t-21 -102q0 -60 27.5 -92t78.5 -32z" />
    <glyph glyph-name="A" unicode="A" horiz-adv-x="735" 
d="M18 0l311 705h72l316 -705h-86l-88 201l37 -21h-431l40 21l-86 -201h-85zM364 610l-162 -380l-24 18h372l-18 -18l-166 380h-2z" />
    <glyph glyph-name="B" unicode="B" horiz-adv-x="680" 
d="M88 0v705h282q112 0 173 -48t61 -136q0 -66 -39.5 -110t-109.5 -58v14q78 -9 122.5 -53.5t44.5 -119.5q0 -94 -62.5 -144t-176.5 -50h-295zM169 67h206q76 0 120.5 29.5t44.5 98.5q0 70 -44.5 99.5t-120.5 29.5h-206v-257zM169 390h189q82 0 123 32t41 92q0 62 -41 93.5
t-123 31.5h-189v-249z" />
    <glyph glyph-name="C" unicode="C" horiz-adv-x="684" 
d="M395 -9q-106 0 -180 44t-113.5 125t-39.5 193t39.5 192.5t113.5 124.5t180 44q75 0 134 -23t103 -67l-31 -66q-48 42 -95 61.5t-110 19.5q-121 0 -184 -75t-63 -211t63 -211.5t184 -75.5q63 0 110 19.5t95 62.5l31 -67q-44 -43 -103 -66.5t-134 -23.5z" />
    <glyph glyph-name="D" unicode="D" horiz-adv-x="747" 
d="M88 0v705h234q117 0 198 -40.5t123 -119t42 -192.5q0 -113 -42 -192t-123 -120t-198 -41h-234zM171 71h145q144 0 214 70.5t70 211.5q0 142 -70 212t-214 70h-145v-564z" />
    <glyph glyph-name="E" unicode="E" horiz-adv-x="588" 
d="M88 0v705h450v-68h-369v-245h347v-69h-347v-254h369v-69h-450z" />
    <glyph glyph-name="F" unicode="F" horiz-adv-x="562" 
d="M88 0v705h440v-68h-357v-247h335v-68h-335v-322h-83z" />
    <glyph glyph-name="G" unicode="G" horiz-adv-x="731" 
d="M412 -9q-116 0 -194 43t-117 124t-39 194q0 112 41 193t118 125t186 44q77 0 133.5 -22.5t101.5 -66.5l-31 -65q-33 29 -63.5 46t-63.5 25.5t-77 8.5q-125 0 -191.5 -75.5t-66.5 -213.5q0 -139 64.5 -213t200.5 -74q50 0 95.5 9.5t88.5 27.5l-18 -45v248h-180v65h251
v-327q-43 -23 -108.5 -37t-130.5 -14z" />
    <glyph glyph-name="H" unicode="H" horiz-adv-x="766" 
d="M88 0v705h83v-312h425v312h82v-705h-82v322h-425v-322h-83z" />
    <glyph glyph-name="I" unicode="I" horiz-adv-x="259" 
d="M88 0v705h83v-705h-83z" />
    <glyph glyph-name="J" unicode="J" horiz-adv-x="329" 
d="M79 -186q-16 0 -36.5 1.5t-41.5 6.5v69q19 -4 35.5 -6.5t29.5 -2.5q46 0 69 28.5t23 90.5v704h83v-705q0 -60 -17.5 -102t-53 -63t-91.5 -21z" />
    <glyph glyph-name="K" unicode="K" horiz-adv-x="634" 
d="M88 0v705h83v-320h2l338 320h106l-389 -364l1 42l416 -383h-109l-363 332h-2v-332h-83z" />
    <glyph glyph-name="L" unicode="L" horiz-adv-x="545" 
d="M88 0v705h83v-633h356v-72h-439z" />
    <glyph glyph-name="M" unicode="M" horiz-adv-x="858" 
d="M89 0v705h72l283 -639h-29l283 639h72v-705h-76v598h30l-267 -598h-55l-268 598h30v-598h-75z" />
    <glyph glyph-name="N" unicode="N" horiz-adv-x="747" 
d="M88 0v705h65l452 -600h-23v600h77v-705h-64l-452 600h22v-600h-77z" />
    <glyph glyph-name="O" unicode="O" horiz-adv-x="772" 
d="M62 353q0 112 38.5 192.5t111 124.5t174.5 44q99 0 172 -44t112.5 -124.5t39.5 -191.5q0 -112 -40 -193t-112.5 -125.5t-171.5 -44.5q-102 0 -174 44.5t-111 125.5t-39 192zM149 353q0 -136 60 -212.5t177 -76.5q112 0 174.5 76.5t62.5 212.5q0 137 -62 212.5t-175 75.5
q-117 0 -177 -75.5t-60 -212.5z" />
    <glyph glyph-name="P" unicode="P" horiz-adv-x="651" 
d="M88 0v705h287q111 0 171 -53.5t60 -148.5q0 -93 -60 -147.5t-171 -54.5h-204v-301h-83zM171 370h196q77 0 116.5 35t39.5 98q0 64 -39.5 99t-116.5 35h-196v-267z" />
    <glyph glyph-name="Q" unicode="Q" horiz-adv-x="772" 
d="M576 -191q-29 19 -60 49t-58.5 67t-47.5 74l73 27q26 -52 67 -94.5t83 -73.5zM62 353q0 112 38.5 192.5t111 124.5t174.5 44q99 0 172 -44t112.5 -124.5t39.5 -191.5q0 -112 -40 -193t-112.5 -125.5t-171.5 -44.5q-102 0 -174 44.5t-111 125.5t-39 192zM149 353
q0 -136 60 -212.5t177 -76.5q112 0 174.5 76.5t62.5 212.5q0 137 -62 212.5t-175 75.5q-117 0 -177 -75.5t-60 -212.5z" />
    <glyph glyph-name="R" unicode="R" horiz-adv-x="692" 
d="M88 0v705h288q111 0 172 -52.5t61 -146.5q0 -62 -27.5 -105.5t-77 -66.5t-115.5 -23l18 13h20q41 0 73.5 -20t51.5 -67l100 -237h-91l-96 233q-17 45 -51 58.5t-85 13.5h-158v-305h-83zM171 370h193q80 0 121.5 34.5t41.5 99.5t-41.5 99t-121.5 34h-193v-267z" />
    <glyph glyph-name="S" unicode="S" horiz-adv-x="623" 
d="M318 -9q-85 0 -152 22t-117 63l30 66q35 -26 70.5 -43.5t76.5 -26t92 -8.5q89 0 132 33t43 88q0 47 -30 72t-105 40l-105 21q-97 20 -144.5 65t-47.5 122q0 63 32.5 110t91.5 73t137 26q75 0 137 -22.5t106 -65.5l-29 -64q-47 42 -98.5 60.5t-116.5 18.5
q-82 0 -129.5 -35.5t-47.5 -96.5q0 -49 30 -76.5t99 -41.5l106 -21q102 -21 150 -63t48 -118q0 -58 -31.5 -103t-89.5 -70t-138 -25z" />
    <glyph glyph-name="T" unicode="T" horiz-adv-x="604" 
d="M259 0v635h-249v70h580v-70h-248v-635h-83z" />
    <glyph glyph-name="U" unicode="U" horiz-adv-x="730" 
d="M366 -9q-143 0 -212.5 73t-69.5 215v426h82v-422q0 -109 48 -164t152 -55q98 0 149 55t51 164v422h82v-426q0 -142 -71.5 -215t-210.5 -73z" />
    <glyph glyph-name="V" unicode="V" horiz-adv-x="698" 
d="M310 0l-307 705h89l273 -639h-31l275 639h86l-309 -705h-76z" />
    <glyph glyph-name="W" unicode="W" horiz-adv-x="1112" 
d="M280 0l-246 705h87l215 -635h-35l226 635h66l214 -635h-32l221 635h82l-248 -705h-74l-208 611h21l-217 -611h-72z" />
    <glyph glyph-name="X" unicode="X" horiz-adv-x="652" 
d="M9 0l281 376v-31l-268 360h98l220 -301h-26l218 301h99l-269 -360v31l281 -376h-98l-235 319h32l-235 -319h-98z" />
    <glyph glyph-name="Y" unicode="Y" horiz-adv-x="607" 
d="M262 0v329l18 -56l-292 432h96l232 -351h-21l231 351h92l-291 -432l18 56v-329h-83z" />
    <glyph glyph-name="Z" unicode="Z" horiz-adv-x="596" 
d="M43 0v61l427 605v-32h-427v71h506v-61l-428 -604v31h439v-71h-517z" />
    <glyph glyph-name="bracketleft" unicode="[" horiz-adv-x="317" 
d="M106 -180v885h203v-64h-123v-757h123v-64h-203z" />
    <glyph glyph-name="backslash" unicode="\" horiz-adv-x="286" 
d="M239 -55l-262 803h70l262 -803h-70z" />
    <glyph glyph-name="bracketright" unicode="]" horiz-adv-x="317" 
d="M9 -180v64h121v757h-121v64h201v-885h-201z" />
    <glyph glyph-name="asciicircum" unicode="^" 
d="M46 142l222 486h63l223 -486h-67l-208 453h40l-206 -453h-67z" />
    <glyph glyph-name="underscore" unicode="_" horiz-adv-x="505" 
d="M8 -53v53h489v-53h-489z" />
    <glyph glyph-name="grave" unicode="`" horiz-adv-x="500" 
d="M221 551l-132 202h87l103 -202h-58z" />
    <glyph glyph-name="a" unicode="a" 
d="M270 -9q-67 0 -117 31.5t-77.5 89.5t-27.5 139q0 82 27.5 140t77.5 89t117 31q68 0 117.5 -34.5t65.5 -93.5h-12l11 119h78q-3 -29 -5.5 -58.5t-2.5 -57.5v-386h-81v118h11q-16 -59 -66 -93t-116 -34zM286 57q72 0 114 49.5t42 144.5q0 96 -42 145.5t-114 49.5
q-71 0 -113.5 -49.5t-42.5 -145.5q0 -95 42.5 -144.5t113.5 -49.5z" />
    <glyph glyph-name="b" unicode="b" 
d="M331 -9q-68 0 -117 34.5t-66 94.5h11v-120h-80v736h81v-351h-12q17 58 66 92t117 34t117.5 -31.5t77 -89.5t27.5 -139t-28 -139t-77.5 -89.5t-116.5 -31.5zM314 57q71 0 114 49t43 145t-43 145.5t-114 49.5t-113.5 -49.5t-42.5 -145.5q0 -95 42.5 -144.5t113.5 -49.5z
" />
    <glyph glyph-name="c" unicode="c" horiz-adv-x="495" 
d="M290 -9q-74 0 -128.5 32t-84 91t-29.5 140q0 82 30 139.5t84.5 87.5t127.5 30q48 0 93.5 -17t75.5 -48l-29 -58q-30 29 -65.5 43t-69.5 14q-78 0 -121 -49t-43 -143q0 -93 43 -144t121 -51q33 0 68.5 13t66.5 43l29 -57q-31 -32 -77 -49t-92 -17z" />
    <glyph glyph-name="d" unicode="d" 
d="M269 -9q-66 0 -116 31.5t-77.5 89.5t-27.5 139q0 82 27.5 140t77.5 89t116 31q68 0 117.5 -34t66.5 -92h-12v351h81v-736h-80v120h11q-16 -60 -66 -94.5t-118 -34.5zM286 57q71 0 114 49.5t43 144.5q0 96 -43 145.5t-114 49.5t-113.5 -49.5t-42.5 -145.5
q0 -95 42.5 -144.5t113.5 -49.5z" />
    <glyph glyph-name="e" unicode="e" horiz-adv-x="544" 
d="M302 -9q-118 0 -186 68.5t-68 190.5q0 79 30 137.5t84 91t124 32.5q69 0 116 -29t72 -82.5t25 -126.5v-30h-389v51h336l-17 -13q0 80 -36 125t-107 45q-75 0 -117 -52.5t-42 -141.5v-9q0 -94 46.5 -142.5t130.5 -48.5q45 0 84.5 13.5t75.5 44.5l28 -57
q-33 -32 -83.5 -49.5t-106.5 -17.5z" />
    <glyph glyph-name="f" unicode="f" horiz-adv-x="338" 
d="M105 0v439h-98v63h120l-22 -21v84q0 85 43 130t123 45q20 0 41.5 -3.5t35.5 -9.5v-67q-12 5 -29.5 8.5t-35.5 3.5q-31 0 -53 -12.5t-33 -37.5t-11 -64v-73l-13 17h153v-63h-140v-439h-81z" />
    <glyph glyph-name="g" unicode="g" horiz-adv-x="603" 
d="M300 -223q-65 0 -120 16t-99 49l24 61q31 -22 61 -35t62 -19.5t68 -6.5q74 0 112 39t38 111v147h10q-16 -59 -66 -93.5t-117 -34.5q-69 0 -119.5 30.5t-78 87t-27.5 133.5q0 76 27.5 132t78 86.5t119.5 30.5q68 0 117.5 -34t65.5 -94l-10 10l9 109h79q-4 -29 -6 -58.5
t-2 -57.5v-383q0 -112 -57.5 -169t-168.5 -57zM288 77q73 0 115 48.5t42 136.5t-42 136t-115 48q-72 0 -115 -48t-43 -136t43 -136.5t115 -48.5z" />
    <glyph glyph-name="h" unicode="h" horiz-adv-x="586" 
d="M79 0v736h81v-345h-13q21 59 70.5 89.5t114.5 30.5q90 0 134 -48.5t44 -146.5v-316h-81v311q0 70 -27.5 102t-88.5 32q-70 0 -111.5 -43t-41.5 -113v-289h-81z" />
    <glyph glyph-name="i" unicode="i" horiz-adv-x="238" 
d="M79 0v502h81v-502h-81zM69 616v91h100v-91h-100z" />
    <glyph glyph-name="j" unicode="j" horiz-adv-x="238" 
d="M13 -220q-14 0 -35 3.5t-35 8.5v68q12 -4 28 -7.5t30 -3.5q42 0 62.5 26.5t20.5 86.5v540h81v-548q0 -86 -37.5 -130t-114.5 -44zM75 616v91h99v-91h-99z" />
    <glyph glyph-name="k" unicode="k" horiz-adv-x="515" 
d="M79 0v736h81v-457h2l233 223h102l-275 -262l2 41l299 -281h-105l-256 236h-2v-236h-81z" />
    <glyph glyph-name="l" unicode="l" horiz-adv-x="238" 
d="M79 0v736h81v-736h-81z" />
    <glyph glyph-name="m" unicode="m" horiz-adv-x="878" 
d="M79 0v386q0 28 -2.5 57.5t-5.5 58.5h78l10 -110h-12q20 57 63.5 88t105.5 31q63 0 102.5 -30t53.5 -93h-15q19 57 67 90t112 33q83 0 125 -47.5t42 -149.5v-314h-81v309q0 71 -25 103.5t-80 32.5q-63 0 -99.5 -43.5t-36.5 -116.5v-285h-81v309q0 71 -25 103.5t-80 32.5
q-63 0 -99 -43.5t-36 -116.5v-285h-81z" />
    <glyph glyph-name="n" unicode="n" horiz-adv-x="586" 
d="M79 0v386q0 28 -2.5 57.5t-5.5 58.5h78l10 -110h-12q22 58 70.5 88.5t112.5 30.5q89 0 134.5 -47.5t45.5 -149.5v-314h-81v309q0 71 -28.5 103.5t-88.5 32.5q-70 0 -111 -43t-41 -115v-287h-81z" />
    <glyph glyph-name="o" unicode="o" horiz-adv-x="571" 
d="M285 -9q-72 0 -125.5 31.5t-82.5 90t-29 138.5q0 81 29 139t82.5 89.5t125.5 31.5q73 0 126.5 -31.5t83 -89.5t29.5 -139q0 -80 -29.5 -138.5t-83 -90t-126.5 -31.5zM285 57q72 0 114 49.5t42 144.5q0 96 -42.5 145.5t-113.5 49.5t-113 -49.5t-42 -145.5q0 -95 42 -144.5
t113 -49.5z" />
    <glyph glyph-name="p" unicode="p" 
d="M79 -216v602q0 28 -2.5 57.5t-5.5 58.5h78l11 -119h-12q16 59 65 93.5t117 34.5t117.5 -31t77.5 -89t28 -140q0 -81 -27.5 -139t-77.5 -89.5t-118 -31.5q-67 0 -116 34t-65 93h11v-334h-81zM314 57q72 0 114.5 49.5t42.5 144.5q0 96 -42.5 145.5t-114.5 49.5
q-71 0 -113.5 -49.5t-42.5 -145.5q0 -95 42.5 -144.5t113.5 -49.5z" />
    <glyph glyph-name="q" unicode="q" 
d="M441 -216v334h11q-16 -59 -66 -93t-116 -34q-67 0 -117 31.5t-77.5 89.5t-27.5 139q0 82 27.5 140t77.5 89t117 31q68 0 117.5 -34.5t65.5 -93.5h-12l11 119h78q-3 -29 -5.5 -58.5t-2.5 -57.5v-602h-81zM286 57q72 0 114 49.5t42 144.5q0 96 -42 145.5t-114 49.5
q-71 0 -113.5 -49.5t-42.5 -145.5q0 -95 42.5 -144.5t113.5 -49.5z" />
    <glyph glyph-name="r" unicode="r" horiz-adv-x="363" 
d="M77 0v381q0 30 -1.5 61t-4.5 60h78l10 -122l-14 -1q10 45 35 74t59 43.5t71 14.5q15 0 26.5 -1t21.5 -5l-1 -72q-15 5 -27.5 6.5t-28.5 1.5q-44 0 -76.5 -21t-49 -54t-16.5 -70v-296h-82z" />
    <glyph glyph-name="s" unicode="s" horiz-adv-x="496" 
d="M246 -9q-60 0 -112 16.5t-86 46.5l28 57q37 -29 80.5 -43t90.5 -14q60 0 90.5 21.5t30.5 59.5q0 29 -19.5 46.5t-63.5 27.5l-93 19q-64 14 -96 47.5t-32 85.5q0 44 23 77.5t67 53t103 19.5q55 0 101.5 -16.5t77.5 -47.5l-29 -56q-30 29 -68.5 43.5t-79.5 14.5
q-59 0 -88.5 -23.5t-29.5 -61.5q0 -29 18.5 -47.5t57.5 -27.5l93 -19q68 -15 101.5 -46.5t33.5 -84.5q0 -45 -25 -78.5t-69.5 -51.5t-104.5 -18z" />
    <glyph glyph-name="t" unicode="t" horiz-adv-x="350" 
d="M257 -9q-74 0 -113 42.5t-39 128.5v277h-98v63h98v137l81 23v-160h144v-63h-144v-268q0 -60 20.5 -85.5t61.5 -25.5q19 0 34 3.5t27 8.5v-68q-14 -6 -33.5 -9.5t-38.5 -3.5z" />
    <glyph glyph-name="u" unicode="u" horiz-adv-x="577" 
d="M256 -9q-89 0 -134.5 49t-45.5 150v312h81v-310q0 -69 28 -101.5t87 -32.5q66 0 106 43t40 115v286h81v-502h-79v113h13q-21 -58 -67.5 -90t-109.5 -32z" />
    <glyph glyph-name="v" unicode="v" horiz-adv-x="531" 
d="M227 0l-215 502h88l180 -442h-27l182 442h84l-215 -502h-77z" />
    <glyph glyph-name="w" unicode="w" horiz-adv-x="869" 
d="M213 0l-186 502h86l155 -442h-26l160 442h70l157 -442h-25l156 442h82l-187 -502h-78l-162 449h40l-163 -449h-79z" />
    <glyph glyph-name="x" unicode="x" horiz-adv-x="535" 
d="M11 0l225 279v-40l-213 263h98l161 -205h-29l160 205h97l-210 -262v37l223 -277h-99l-172 219h30l-174 -219h-97z" />
    <glyph glyph-name="y" unicode="y" horiz-adv-x="531" 
d="M59 -227l-19 67q47 11 78.5 25.5t52.5 38.5t36 60l26 59l-2 -34l-219 513h88l181 -441h-26l179 441h85l-232 -544q-20 -48 -44 -80.5t-51.5 -53t-60.5 -32.5t-72 -19z" />
    <glyph glyph-name="z" unicode="z" horiz-adv-x="519" 
d="M50 0v54l338 406l1 -21h-339v63h414v-54l-342 -408l-1 23h354v-63h-425z" />
    <glyph glyph-name="braceleft" unicode="{" horiz-adv-x="355" 
d="M249 -180q-49 0 -75 26.5t-26 76.5v226q0 42 -16.5 60t-56.5 21l-29 2v62l29 2q39 2 56 20t17 60v226q0 51 26 77t75 26h98v-64h-74q-23 0 -34 -11.5t-11 -34.5v-227q0 -30 -12.5 -55t-33.5 -38.5t-48 -13.5v4q27 0 48 -14t33.5 -38t12.5 -55v-228q0 -23 11 -34.5
t34 -11.5h74v-64h-98z" />
    <glyph glyph-name="bar" unicode="|" horiz-adv-x="264" 
d="M92 -186v897h81v-897h-81z" />
    <glyph glyph-name="braceright" unicode="}" horiz-adv-x="355" 
d="M8 -180v64h74q23 0 34 11.5t11 34.5v227q0 31 12.5 55.5t33.5 38t47 13.5v-4q-26 0 -47 14t-33.5 39t-12.5 55v227q0 23 -11 34.5t-34 11.5h-74v64h98q49 0 75 -26t26 -77v-226q0 -41 16.5 -59.5t56.5 -20.5l29 -2v-63l-29 -2q-39 -2 -56 -20t-17 -60v-226
q0 -50 -26 -76.5t-75 -26.5h-98z" />
    <glyph glyph-name="asciitilde" unicode="~" 
d="M417 217q-26 0 -55.5 9.5t-72.5 32.5q-41 23 -62.5 30.5t-38.5 7.5q-56 0 -84 -65l-51 27q20 48 53.5 73.5t76.5 25.5q26 0 54.5 -9.5t71.5 -31.5q39 -20 61.5 -30t41.5 -10q56 0 84 66l51 -28q-20 -48 -53 -73t-77 -25z" />
    <glyph glyph-name="uni00A0" unicode="&#xa0;" horiz-adv-x="261" 
 />
    <glyph glyph-name="exclamdown" unicode="&#xa1;" horiz-adv-x="228" 
d="M64 -180l25 499h50l25 -499h-100zM63 400v102h102v-102h-102z" />
    <glyph glyph-name="cent" unicode="&#xa2;" 
d="M282 -115v131l16 -22q-61 7 -108 40t-73 87t-26 123q0 66 25.5 119t72 87t109.5 40l-16 -26v142h68v-139l-17 25q48 0 95 -16.5t74 -46.5l-27 -58q-28 27 -64.5 41t-75.5 14q-74 0 -117.5 -50t-43.5 -132q0 -83 43 -133t117 -50q39 0 76 14t65 40l27 -57
q-29 -30 -75.5 -47.5t-95.5 -17.5l19 20v-128h-68z" />
    <glyph glyph-name="sterling" unicode="&#xa3;" 
d="M46 0v58q48 19 75 46.5t27 70.5v151h-102v55h102v129q0 65 24.5 110.5t73.5 69.5t123 24q59 0 111 -20.5t90 -58.5l-33 -63q-34 37 -75.5 54.5t-93.5 17.5q-69 0 -103 -33t-34 -98v-132h185v-55h-185v-127q0 -55 -23 -87t-61 -48v6h416v-70h-517z" />
    <glyph glyph-name="currency" unicode="&#xa4;" 
d="M78 -26l-43 44l74 75q-23 32 -36.5 71t-13.5 81q0 43 13 82t37 70l-74 76l43 43l74 -76q30 25 68 39t80 14t79 -13.5t68 -37.5l72 75l44 -45l-73 -74q24 -32 37.5 -71t13.5 -82t-13.5 -82t-38.5 -71l74 -74l-43 -43l-73 74q-30 -24 -67.5 -38t-79.5 -14t-80 14t-69 38z
M300 67q46 0 84 24t60 64.5t22 89.5t-22 89.5t-60 65t-84 23.5q-46 0 -84.5 -24t-61 -64.5t-22.5 -89.5t22.5 -89.5t60.5 -64.5t85 -24z" />
    <glyph glyph-name="yen" unicode="&#xa5;" 
d="M259 0v178h-187v54h187v99h-187v54h161v-11l-238 331h92l224 -315h-21l223 315h92l-237 -331v11h160v-54h-187v-99h187v-54h-187v-178h-82z" />
    <glyph glyph-name="brokenbar" unicode="&#xa6;" horiz-adv-x="264" 
d="M92 372v339h81v-339h-81zM92 -186v339h81v-339h-81z" />
    <glyph glyph-name="section" unicode="&#xa7;" horiz-adv-x="542" 
d="M247 -189q-65 0 -118.5 17t-87.5 47l28 58q21 -18 50.5 -31.5t63 -21t67.5 -7.5q62 0 100 29t38 83q0 38 -20.5 65.5t-73.5 51.5l-113 51q-55 26 -87 51.5t-45.5 55.5t-13.5 66q0 42 21 80t56 63l-7 -24q-12 15 -20 36.5t-8 52.5q0 57 28 96.5t77 61t112 21.5
q61 0 112 -16t84 -46l-28 -57q-32 27 -78 42t-92 15q-60 0 -97.5 -29t-37.5 -83q0 -37 21 -64.5t73 -51.5l113 -52q55 -25 87 -51t45.5 -55.5t13.5 -66.5q0 -41 -21 -79.5t-56 -62.5l7 23q12 -14 20 -36t8 -53q0 -56 -28 -96t-77.5 -61.5t-115.5 -21.5zM110 338
q0 -36 23 -64.5t87 -57.5l96 -44q38 -18 63.5 -36t39.5 -37l-24 -1q41 36 41 89q0 36 -24 64.5t-86 56.5l-97 45q-37 18 -63 36.5t-40 36.5l24 1q-19 -17 -29.5 -40t-10.5 -49z" />
    <glyph glyph-name="dieresis" unicode="&#xa8;" horiz-adv-x="500" 
d="M294 609v86h86v-86h-86zM120 609v86h86v-86h-86z" />
    <glyph glyph-name="copyright" unicode="&#xa9;" horiz-adv-x="815" 
d="M408 -9q-76 0 -142.5 27.5t-115.5 76.5t-76.5 115.5t-27.5 142.5q0 77 27.5 142.5t76.5 114.5t115 76.5t143 27.5t143 -27.5t114.5 -76.5t76 -114.5t27.5 -142.5q0 -76 -27.5 -142.5t-76.5 -115.5t-114.5 -76.5t-142.5 -27.5zM421 137q-97 0 -152.5 60t-55.5 158
q0 99 55.5 156t152.5 57q40 0 79 -14t64 -39l-24 -52q-26 24 -56 35t-60 11q-65 0 -102 -40.5t-37 -114.5q0 -72 37 -114.5t102 -42.5q30 0 60 11t56 35l24 -53q-25 -24 -64.5 -38.5t-78.5 -14.5zM408 35q67 0 124.5 24t100 67.5t66.5 101t24 125.5t-24 125.5t-66.5 100.5
t-100 67t-124.5 24q-68 0 -125.5 -24t-100 -67t-66.5 -100.5t-24 -125.5t24 -125.5t66.5 -101t100.5 -67.5t125 -24z" />
    <glyph glyph-name="ordfeminine" unicode="&#xaa;" horiz-adv-x="326" 
d="M133 411q-47 0 -78 26t-31 64q0 46 41.5 66t113.5 20h60v-36h-58q-51 0 -75.5 -12t-24.5 -37q0 -20 15.5 -34.5t48.5 -14.5q38 0 62 24.5t24 68.5v57q0 33 -18 49.5t-54 16.5q-27 0 -55 -7t-51 -22l-16 42q25 16 58.5 24t65.5 8q126 0 126 -113v-185h-54v54h-2
q-17 -31 -40.5 -45t-57.5 -14z" />
    <glyph glyph-name="guillemotleft" unicode="&#xab;" horiz-adv-x="445" 
d="M154 88l-127 180l127 180h71l-118 -180l118 -180h-71zM337 88l-127 180l127 180h71l-118 -180l118 -180h-71z" />
    <glyph glyph-name="logicalnot" unicode="&#xac;" 
d="M483 148v210h-430v62h494v-272h-64z" />
    <glyph glyph-name="uni00AD" unicode="&#xad;" horiz-adv-x="428" 
d="M72 241v67h285v-67h-285z" />
    <glyph glyph-name="registered" unicode="&#xae;" horiz-adv-x="815" 
d="M408 -9q-76 0 -142.5 27.5t-115.5 76.5t-76.5 115.5t-27.5 142.5q0 77 27.5 142.5t76.5 114.5t115 76.5t143 27.5t143 -27.5t114.5 -76.5t76 -114.5t27.5 -142.5q0 -76 -27.5 -142.5t-76.5 -115.5t-114.5 -76.5t-142.5 -27.5zM408 35q67 0 124.5 24t100 67.5t66.5 101
t24 125.5t-24 125.5t-66.5 100.5t-100 67t-124.5 24q-68 0 -125.5 -24t-100 -67t-66.5 -100.5t-24 -125.5t24 -125.5t66.5 -101t100.5 -67.5t125 -24zM264 142v422h171q68 0 104.5 -32.5t36.5 -89.5q0 -58 -36.5 -88.5t-102.5 -30.5l12 10q31 0 51.5 -13.5t32.5 -49.5
l48 -128h-69l-48 130q-9 25 -27.5 33.5t-44.5 8.5h-75l13 10v-182h-66zM330 368h97q42 0 63 17t21 54t-20.5 54t-63.5 17h-97v-142z" />
    <glyph glyph-name="macron" unicode="&#xaf;" horiz-adv-x="500" 
d="M102 625v55h296v-55h-296z" />
    <glyph glyph-name="degree" unicode="&#xb0;" horiz-adv-x="371" 
d="M186 418q-42 0 -76 20t-53.5 53t-19.5 75t19.5 75.5t53.5 53t76 19.5t75 -19.5t52.5 -52.5t19.5 -76q0 -42 -19.5 -75.5t-52.5 -53t-75 -19.5zM186 473q40 0 64.5 26.5t24.5 66.5q0 41 -24.5 67t-64.5 26q-39 0 -64.5 -26t-25.5 -67q0 -40 25 -66.5t65 -26.5z" />
    <glyph glyph-name="plusminus" unicode="&#xb1;" 
d="M268 127v170h-215v62h215v170h64v-170h215v-62h-215v-170h-64zM53 0v62h494v-62h-494z" />
    <glyph glyph-name="uni00B2" unicode="&#xb2;" horiz-adv-x="380" 
d="M52 282v50l144 146q28 31 41 55.5t13 51.5q0 65 -74 65q-29 0 -60 -11.5t-55 -32.5l-22 52q27 23 65.5 37t83.5 14q63 0 99 -31.5t36 -85.5q0 -34 -16.5 -67t-52.5 -69l-124 -125v10h212v-59h-290z" />
    <glyph glyph-name="uni00B3" unicode="&#xb3;" horiz-adv-x="380" 
d="M186 278q-47 0 -87 13t-67 37l21 50q25 -20 58.5 -31.5t70.5 -11.5q38 0 62 16.5t24 52.5q0 34 -24.5 49.5t-65.5 15.5h-78v54h67q42 0 65.5 17t23.5 51q0 29 -20.5 45.5t-58.5 16.5q-31 0 -63.5 -12t-55.5 -34l-23 52q27 23 66.5 36.5t84.5 13.5q64 0 101 -29.5
t37 -79.5q0 -42 -25 -68.5t-60 -36.5v8q43 -6 70 -33t27 -72q0 -57 -42.5 -88.5t-107.5 -31.5z" />
    <glyph glyph-name="acute" unicode="&#xb4;" horiz-adv-x="500" 
d="M221 551l103 202h87l-132 -202h-58z" />
    <glyph glyph-name="uni00B5" unicode="&#xb5;" horiz-adv-x="570" 
d="M74 -208v710h81v-314q0 -67 27.5 -97.5t85.5 -30.5q65 0 105.5 41.5t40.5 111.5v289h81v-502h-79v112h8q-17 -58 -59 -89.5t-98 -31.5q-44 0 -78 16t-52 60h11l7 -275h-81z" />
    <glyph glyph-name="paragraph" unicode="&#xb6;" horiz-adv-x="599" 
d="M249 -180v490q-62 0 -108 25.5t-71 70t-25 102.5t25 102.5t71.5 69.5t109.5 25h260v-885h-65v823h-132v-823h-65z" />
    <glyph glyph-name="periodcentered" unicode="&#xb7;" horiz-adv-x="231" 
d="M64 223v102h103v-102h-103z" />
    <glyph glyph-name="cedilla" unicode="&#xb8;" horiz-adv-x="500" 
d="M253 -192q-26 0 -49.5 5t-40.5 14l14 44q18 -8 34.5 -12t38.5 -4q27 0 43 9.5t16 27.5q0 28 -38 28q-11 0 -21.5 -1.5t-25.5 -7.5l-17 16l15 93h51l-13 -75l-24 6q11 3 23 5t22 2q36 0 60 -18t24 -50q0 -37 -31 -59.5t-81 -22.5z" />
    <glyph glyph-name="uni00B9" unicode="&#xb9;" horiz-adv-x="380" 
d="M82 282v59h97v305h31l-120 -72v68l105 63h52v-364h86v-59h-251z" />
    <glyph glyph-name="ordmasculine" unicode="&#xba;" horiz-adv-x="341" 
d="M171 411q-43 0 -75.5 19t-52 53t-19.5 80t19.5 80t52 52.5t75.5 18.5q42 0 75 -18.5t52 -52.5t19 -80t-19 -80t-51.5 -53t-75.5 -19zM171 457q41 0 64.5 27t23.5 79q0 51 -23.5 78t-64.5 27t-65 -26.5t-24 -78.5t24 -79t65 -27z" />
    <glyph glyph-name="guillemotright" unicode="&#xbb;" horiz-adv-x="445" 
d="M108 88h-71l118 180l-118 180h71l128 -180zM291 88h-71l118 180l-118 180h71l128 -180z" />
    <glyph glyph-name="onequarter" unicode="&#xbc;" horiz-adv-x="896" 
d="M82 282v59h97v305h31l-120 -72v68l105 63h52v-364h86v-59h-251zM294 -9h-72l429 723h72zM750 0v85h-201v50l208 288h57v-283h64v-55h-64v-85h-64zM751 140v208h10l-161 -223v15h151z" />
    <glyph glyph-name="onehalf" unicode="&#xbd;" horiz-adv-x="940" 
d="M82 282v59h97v305h31l-120 -72v68l105 63h52v-364h86v-59h-251zM294 -9h-72l429 723h72zM612 0v50l144 146q28 31 41 55.5t13 51.5q0 65 -74 65q-29 0 -60 -11.5t-55 -32.5l-22 52q27 23 65.5 37t83.5 14q63 0 99 -31.5t36 -85.5q0 -34 -16.5 -67t-52.5 -69l-124 -125v10
h212v-59h-290z" />
    <glyph glyph-name="threequarters" unicode="&#xbe;" horiz-adv-x="896" 
d="M186 278q-47 0 -87 13t-67 37l21 50q25 -20 58.5 -31.5t70.5 -11.5q38 0 62 16.5t24 52.5q0 34 -24.5 49.5t-65.5 15.5h-78v54h67q42 0 65.5 17t23.5 51q0 29 -20.5 45.5t-58.5 16.5q-31 0 -63.5 -12t-55.5 -34l-23 52q27 23 66.5 36.5t84.5 13.5q64 0 101 -29.5
t37 -79.5q0 -42 -25 -68.5t-60 -36.5v8q43 -6 70 -33t27 -72q0 -57 -42.5 -88.5t-107.5 -31.5zM294 -9h-72l429 723h72zM750 0v85h-201v50l208 288h57v-283h64v-55h-64v-85h-64zM751 140v208h10l-161 -223v15h151z" />
    <glyph glyph-name="questiondown" unicode="&#xbf;" horiz-adv-x="448" 
d="M225 -209q-57 0 -100.5 19t-68 54.5t-24.5 83.5q0 33 9 61t30 57.5t56 65.5q50 51 69.5 88t24.5 77l3 21h52v-26q0 -50 -19.5 -95t-70.5 -100q-39 -44 -55 -76t-16 -67q0 -43 31.5 -67.5t86.5 -24.5q39 0 75 10.5t68 28.5v-75q-32 -16 -71.5 -25.5t-79.5 -9.5zM301 502
v-103h-102v103h102z" />
    <glyph glyph-name="Agrave" unicode="&#xc0;" horiz-adv-x="735" 
d="M18 0l311 705h72l316 -705h-86l-88 201l37 -21h-431l40 21l-86 -201h-85zM364 610l-162 -380l-24 18h372l-18 -18l-166 380h-2zM335 765l-147 172h91l118 -172h-62z" />
    <glyph glyph-name="Aacute" unicode="&#xc1;" horiz-adv-x="735" 
d="M18 0l311 705h72l316 -705h-86l-88 201l37 -21h-431l40 21l-86 -201h-85zM364 610l-162 -380l-24 18h372l-18 -18l-166 380h-2zM335 765l118 172h91l-147 -172h-62z" />
    <glyph glyph-name="Acircumflex" unicode="&#xc2;" horiz-adv-x="735" 
d="M18 0l311 705h72l316 -705h-86l-88 201l37 -21h-431l40 21l-86 -201h-85zM364 610l-162 -380l-24 18h372l-18 -18l-166 380h-2zM205 765l123 172h76l123 -172h-61l-100 119l-100 -119h-61z" />
    <glyph glyph-name="Atilde" unicode="&#xc3;" horiz-adv-x="735" 
d="M18 0l311 705h72l316 -705h-86l-88 201l37 -21h-431l40 21l-86 -201h-85zM364 610l-162 -380l-24 18h372l-18 -18l-166 380h-2zM203 783l-46 3q6 64 38.5 98.5t81.5 34.5q23 0 46.5 -9.5t56.5 -31.5q31 -19 47 -27t31 -8q30 0 47 20.5t24 58.5l46 -3q-6 -64 -38 -98.5
t-81 -34.5q-23 0 -47 10t-60 33q-27 18 -44 25.5t-31 7.5q-30 0 -47 -20.5t-24 -58.5z" />
    <glyph glyph-name="Adieresis" unicode="&#xc4;" horiz-adv-x="735" 
d="M18 0l311 705h72l316 -705h-86l-88 201l37 -21h-431l40 21l-86 -201h-85zM364 610l-162 -380l-24 18h372l-18 -18l-166 380h-2zM410 806v86h86v-86h-86zM236 806v86h86v-86h-86z" />
    <glyph glyph-name="Aring" unicode="&#xc5;" horiz-adv-x="735" 
d="M18 0l311 705h72l316 -705h-86l-88 201l37 -21h-431l40 21l-86 -201h-85zM364 610l-162 -380l-24 18h372l-18 -18l-166 380h-2zM366 758q-33 0 -60 15.5t-43 42t-16 58.5q0 33 16 58.5t43 41t60 15.5q34 0 60.5 -15.5t42.5 -41t16 -58.5q0 -32 -16 -58.5t-42.5 -42
t-60.5 -15.5zM366 801q32 0 52 21t20 52q0 30 -20 51t-52 21q-31 0 -51.5 -21t-20.5 -51q0 -31 20.5 -52t51.5 -21z" />
    <glyph glyph-name="AE" unicode="&#xc6;" horiz-adv-x="1006" 
d="M-2 0l431 705h527v-68h-399l21 22l26 -289l-17 22h347v-69h-340l13 10l27 -288l-12 24h334v-69h-396l-18 196l26 -16h-384l28 22l-122 -202h-92zM471 636l-243 -407l-10 20h331l-9 -22l-37 409h-32z" />
    <glyph glyph-name="Ccedilla" unicode="&#xc7;" horiz-adv-x="684" 
d="M395 -9q-106 0 -180 44t-113.5 125t-39.5 193t39.5 192.5t113.5 124.5t180 44q75 0 134 -23t103 -67l-31 -66q-48 42 -95 61.5t-110 19.5q-121 0 -184 -75t-63 -211t63 -211.5t184 -75.5q63 0 110 19.5t95 62.5l31 -67q-44 -43 -103 -66.5t-134 -23.5zM394 -192
q-26 0 -49.5 5t-40.5 14l14 44q18 -8 34.5 -12t38.5 -4q27 0 43 9.5t16 27.5q0 28 -38 28q-11 0 -21.5 -1.5t-25.5 -7.5l-17 16l15 93h51l-13 -75l-24 6q11 3 23 5t22 2q36 0 60 -18t24 -50q0 -37 -31 -59.5t-81 -22.5z" />
    <glyph glyph-name="Egrave" unicode="&#xc8;" horiz-adv-x="588" 
d="M88 0v705h450v-68h-369v-245h347v-69h-347v-254h369v-69h-450zM297 765l-147 172h91l118 -172h-62z" />
    <glyph glyph-name="Eacute" unicode="&#xc9;" horiz-adv-x="588" 
d="M88 0v705h450v-68h-369v-245h347v-69h-347v-254h369v-69h-450zM297 765l118 172h91l-147 -172h-62z" />
    <glyph glyph-name="Ecircumflex" unicode="&#xca;" horiz-adv-x="588" 
d="M88 0v705h450v-68h-369v-245h347v-69h-347v-254h369v-69h-450zM167 765l123 172h76l123 -172h-61l-100 119l-100 -119h-61z" />
    <glyph glyph-name="Edieresis" unicode="&#xcb;" horiz-adv-x="588" 
d="M88 0v705h450v-68h-369v-245h347v-69h-347v-254h369v-69h-450zM372 806v86h86v-86h-86zM198 806v86h86v-86h-86z" />
    <glyph glyph-name="Igrave" unicode="&#xcc;" horiz-adv-x="259" 
d="M88 0v705h83v-705h-83zM98 765l-147 172h91l118 -172h-62z" />
    <glyph glyph-name="Iacute" unicode="&#xcd;" horiz-adv-x="259" 
d="M88 0v705h83v-705h-83zM98 765l118 172h91l-147 -172h-62z" />
    <glyph glyph-name="Icircumflex" unicode="&#xce;" horiz-adv-x="259" 
d="M88 0v705h83v-705h-83zM-32 765l123 172h76l123 -172h-61l-100 119l-100 -119h-61z" />
    <glyph glyph-name="Idieresis" unicode="&#xcf;" horiz-adv-x="259" 
d="M88 0v705h83v-705h-83zM173 806v86h86v-86h-86zM-1 806v86h86v-86h-86z" />
    <glyph glyph-name="Eth" unicode="&#xd0;" horiz-adv-x="747" 
d="M88 0v705h234q117 0 198 -40.5t123 -119t42 -192.5q0 -113 -42 -192t-123 -120t-198 -41h-234zM171 71h145q144 0 214 70.5t70 211.5q0 142 -70 212t-214 70h-145v-564zM2 326v64h367v-64h-367z" />
    <glyph glyph-name="Ntilde" unicode="&#xd1;" horiz-adv-x="747" 
d="M88 0v705h65l452 -600h-23v600h77v-705h-64l-452 600h22v-600h-77zM212 783l-46 3q6 64 38.5 98.5t81.5 34.5q23 0 46.5 -9.5t56.5 -31.5q31 -19 47 -27t31 -8q30 0 47 20.5t24 58.5l46 -3q-6 -64 -38 -98.5t-81 -34.5q-23 0 -47 10t-60 33q-27 18 -44 25.5t-31 7.5
q-30 0 -47 -20.5t-24 -58.5z" />
    <glyph glyph-name="Ograve" unicode="&#xd2;" horiz-adv-x="772" 
d="M62 353q0 112 38.5 192.5t111 124.5t174.5 44q99 0 172 -44t112.5 -124.5t39.5 -191.5q0 -112 -40 -193t-112.5 -125.5t-171.5 -44.5q-102 0 -174 44.5t-111 125.5t-39 192zM149 353q0 -136 60 -212.5t177 -76.5q112 0 174.5 76.5t62.5 212.5q0 137 -62 212.5t-175 75.5
q-117 0 -177 -75.5t-60 -212.5zM355 765l-147 172h91l118 -172h-62z" />
    <glyph glyph-name="Oacute" unicode="&#xd3;" horiz-adv-x="772" 
d="M62 353q0 112 38.5 192.5t111 124.5t174.5 44q99 0 172 -44t112.5 -124.5t39.5 -191.5q0 -112 -40 -193t-112.5 -125.5t-171.5 -44.5q-102 0 -174 44.5t-111 125.5t-39 192zM149 353q0 -136 60 -212.5t177 -76.5q112 0 174.5 76.5t62.5 212.5q0 137 -62 212.5t-175 75.5
q-117 0 -177 -75.5t-60 -212.5zM355 765l118 172h91l-147 -172h-62z" />
    <glyph glyph-name="Ocircumflex" unicode="&#xd4;" horiz-adv-x="772" 
d="M62 353q0 112 38.5 192.5t111 124.5t174.5 44q99 0 172 -44t112.5 -124.5t39.5 -191.5q0 -112 -40 -193t-112.5 -125.5t-171.5 -44.5q-102 0 -174 44.5t-111 125.5t-39 192zM149 353q0 -136 60 -212.5t177 -76.5q112 0 174.5 76.5t62.5 212.5q0 137 -62 212.5t-175 75.5
q-117 0 -177 -75.5t-60 -212.5zM225 765l123 172h76l123 -172h-61l-100 119l-100 -119h-61z" />
    <glyph glyph-name="Otilde" unicode="&#xd5;" horiz-adv-x="772" 
d="M62 353q0 112 38.5 192.5t111 124.5t174.5 44q99 0 172 -44t112.5 -124.5t39.5 -191.5q0 -112 -40 -193t-112.5 -125.5t-171.5 -44.5q-102 0 -174 44.5t-111 125.5t-39 192zM149 353q0 -136 60 -212.5t177 -76.5q112 0 174.5 76.5t62.5 212.5q0 137 -62 212.5t-175 75.5
q-117 0 -177 -75.5t-60 -212.5zM223 783l-46 3q6 64 38.5 98.5t81.5 34.5q23 0 46.5 -9.5t56.5 -31.5q31 -19 47 -27t31 -8q30 0 47 20.5t24 58.5l46 -3q-6 -64 -38 -98.5t-81 -34.5q-23 0 -47 10t-60 33q-27 18 -44 25.5t-31 7.5q-30 0 -47 -20.5t-24 -58.5z" />
    <glyph glyph-name="Odieresis" unicode="&#xd6;" horiz-adv-x="772" 
d="M62 353q0 112 38.5 192.5t111 124.5t174.5 44q99 0 172 -44t112.5 -124.5t39.5 -191.5q0 -112 -40 -193t-112.5 -125.5t-171.5 -44.5q-102 0 -174 44.5t-111 125.5t-39 192zM149 353q0 -136 60 -212.5t177 -76.5q112 0 174.5 76.5t62.5 212.5q0 137 -62 212.5t-175 75.5
q-117 0 -177 -75.5t-60 -212.5zM430 806v86h86v-86h-86zM256 806v86h86v-86h-86z" />
    <glyph glyph-name="multiply" unicode="&#xd7;" 
d="M109 50l-44 43l191 192l-191 191l44 43l191 -190l191 190l44 -43l-191 -191l191 -192l-44 -43l-191 190z" />
    <glyph glyph-name="Oslash" unicode="&#xd8;" horiz-adv-x="772" 
d="M62 353q0 112 38.5 192.5t111 124.5t174.5 44q99 0 172 -44t112.5 -124.5t39.5 -191.5q0 -112 -40 -193t-112.5 -125.5t-171.5 -44.5q-102 0 -174 44.5t-111 125.5t-39 192zM149 353q0 -136 60 -212.5t177 -76.5q112 0 174.5 76.5t62.5 212.5q0 137 -62 212.5t-175 75.5
q-117 0 -177 -75.5t-60 -212.5zM247 46l-54 -93l-56 33l54 93l26 37l296 507l17 37l54 92l56 -33l-54 -93l-26 -36l-296 -508z" />
    <glyph glyph-name="Ugrave" unicode="&#xd9;" horiz-adv-x="730" 
d="M366 -9q-143 0 -212.5 73t-69.5 215v426h82v-422q0 -109 48 -164t152 -55q98 0 149 55t51 164v422h82v-426q0 -142 -71.5 -215t-210.5 -73zM335 765l-147 172h91l118 -172h-62z" />
    <glyph glyph-name="Uacute" unicode="&#xda;" horiz-adv-x="730" 
d="M366 -9q-143 0 -212.5 73t-69.5 215v426h82v-422q0 -109 48 -164t152 -55q98 0 149 55t51 164v422h82v-426q0 -142 -71.5 -215t-210.5 -73zM335 765l118 172h91l-147 -172h-62z" />
    <glyph glyph-name="Ucircumflex" unicode="&#xdb;" horiz-adv-x="730" 
d="M366 -9q-143 0 -212.5 73t-69.5 215v426h82v-422q0 -109 48 -164t152 -55q98 0 149 55t51 164v422h82v-426q0 -142 -71.5 -215t-210.5 -73zM205 765l123 172h76l123 -172h-61l-100 119l-100 -119h-61z" />
    <glyph glyph-name="Udieresis" unicode="&#xdc;" horiz-adv-x="730" 
d="M366 -9q-143 0 -212.5 73t-69.5 215v426h82v-422q0 -109 48 -164t152 -55q98 0 149 55t51 164v422h82v-426q0 -142 -71.5 -215t-210.5 -73zM410 806v86h86v-86h-86zM236 806v86h86v-86h-86z" />
    <glyph glyph-name="Yacute" unicode="&#xdd;" horiz-adv-x="607" 
d="M262 0v329l18 -56l-292 432h96l232 -351h-21l231 351h92l-291 -432l18 56v-329h-83zM273 765l118 172h91l-147 -172h-62z" />
    <glyph glyph-name="Thorn" unicode="&#xde;" horiz-adv-x="652" 
d="M88 0v705h83v-135h202q110 0 171.5 -53.5t61.5 -148.5q0 -94 -61.5 -148t-171.5 -54h-202v-166h-83zM171 235h196q77 0 116.5 35t39.5 98q0 64 -39.5 99t-116.5 35h-196v-267z" />
    <glyph glyph-name="germandbls" unicode="&#xdf;" horiz-adv-x="634" 
d="M79 0v493q0 121 59.5 185t178.5 64q62 0 106.5 -20t68.5 -58t24 -91q0 -66 -37.5 -118.5t-135.5 -91.5v16q92 -25 149.5 -56.5t83.5 -72t26 -91.5q0 -52 -24 -89.5t-68 -58t-104 -20.5q-39 0 -71.5 7.5t-60 21t-50.5 33.5l26 57q38 -28 75 -42t81 -14q56 0 86.5 26.5
t30.5 75.5q0 36 -21 66.5t-74.5 58t-151.5 52.5v65q63 23 99 49.5t50.5 57.5t14.5 67q0 48 -32 77t-90 29q-82 0 -120 -44t-38 -132v-502h-81z" />
    <glyph glyph-name="agrave" unicode="&#xe0;" 
d="M270 -9q-67 0 -117 31.5t-77.5 89.5t-27.5 139q0 82 27.5 140t77.5 89t117 31q68 0 117.5 -34.5t65.5 -93.5h-12l11 119h78q-3 -29 -5.5 -58.5t-2.5 -57.5v-386h-81v118h11q-16 -59 -66 -93t-116 -34zM286 57q72 0 114 49.5t42 144.5q0 96 -42 145.5t-114 49.5
q-71 0 -113.5 -49.5t-42.5 -145.5q0 -95 42.5 -144.5t113.5 -49.5zM265 551l-132 202h87l103 -202h-58z" />
    <glyph glyph-name="aacute" unicode="&#xe1;" 
d="M270 -9q-67 0 -117 31.5t-77.5 89.5t-27.5 139q0 82 27.5 140t77.5 89t117 31q68 0 117.5 -34.5t65.5 -93.5h-12l11 119h78q-3 -29 -5.5 -58.5t-2.5 -57.5v-386h-81v118h11q-16 -59 -66 -93t-116 -34zM286 57q72 0 114 49.5t42 144.5q0 96 -42 145.5t-114 49.5
q-71 0 -113.5 -49.5t-42.5 -145.5q0 -95 42.5 -144.5t113.5 -49.5zM265 551l103 202h87l-132 -202h-58z" />
    <glyph glyph-name="acircumflex" unicode="&#xe2;" 
d="M270 -9q-67 0 -117 31.5t-77.5 89.5t-27.5 139q0 82 27.5 140t77.5 89t117 31q68 0 117.5 -34.5t65.5 -93.5h-12l11 119h78q-3 -29 -5.5 -58.5t-2.5 -57.5v-386h-81v118h11q-16 -59 -66 -93t-116 -34zM286 57q72 0 114 49.5t42 144.5q0 96 -42 145.5t-114 49.5
q-71 0 -113.5 -49.5t-42.5 -145.5q0 -95 42.5 -144.5t113.5 -49.5zM146 551l109 202h78l109 -202h-56l-92 148l-92 -148h-56z" />
    <glyph glyph-name="atilde" unicode="&#xe3;" 
d="M270 -9q-67 0 -117 31.5t-77.5 89.5t-27.5 139q0 82 27.5 140t77.5 89t117 31q68 0 117.5 -34.5t65.5 -93.5h-12l11 119h78q-3 -29 -5.5 -58.5t-2.5 -57.5v-386h-81v118h11q-16 -59 -66 -93t-116 -34zM286 57q72 0 114 49.5t42 144.5q0 96 -42 145.5t-114 49.5
q-71 0 -113.5 -49.5t-42.5 -145.5q0 -95 42.5 -144.5t113.5 -49.5zM160 590l-46 3q5 64 34 98.5t73 34.5q22 0 40.5 -10t42.5 -31q22 -20 35.5 -27.5t26.5 -7.5q51 0 62 79l46 -3q-5 -64 -33.5 -98.5t-72.5 -34.5q-21 0 -40 10t-44 32q-21 19 -34.5 26.5t-27.5 7.5
q-26 0 -41.5 -20.5t-20.5 -58.5z" />
    <glyph glyph-name="adieresis" unicode="&#xe4;" 
d="M270 -9q-67 0 -117 31.5t-77.5 89.5t-27.5 139q0 82 27.5 140t77.5 89t117 31q68 0 117.5 -34.5t65.5 -93.5h-12l11 119h78q-3 -29 -5.5 -58.5t-2.5 -57.5v-386h-81v118h11q-16 -59 -66 -93t-116 -34zM286 57q72 0 114 49.5t42 144.5q0 96 -42 145.5t-114 49.5
q-71 0 -113.5 -49.5t-42.5 -145.5q0 -95 42.5 -144.5t113.5 -49.5zM338 609v86h86v-86h-86zM164 609v86h86v-86h-86z" />
    <glyph glyph-name="aring" unicode="&#xe5;" 
d="M270 -9q-67 0 -117 31.5t-77.5 89.5t-27.5 139q0 82 27.5 140t77.5 89t117 31q68 0 117.5 -34.5t65.5 -93.5h-12l11 119h78q-3 -29 -5.5 -58.5t-2.5 -57.5v-386h-81v118h11q-16 -59 -66 -93t-116 -34zM286 57q72 0 114 49.5t42 144.5q0 96 -42 145.5t-114 49.5
q-71 0 -113.5 -49.5t-42.5 -145.5q0 -95 42.5 -144.5t113.5 -49.5zM294 547q-33 0 -60 15t-43 41.5t-16 58.5q0 33 16 59t43 41.5t60 15.5q34 0 60.5 -15.5t42.5 -41.5t16 -59q0 -32 -16 -58.5t-42.5 -41.5t-60.5 -15zM294 590q32 0 52 21t20 51q0 31 -20 51.5t-52 20.5
q-31 0 -51.5 -20.5t-20.5 -51.5q0 -30 20.5 -51t51.5 -21z" />
    <glyph glyph-name="ae" unicode="&#xe6;" horiz-adv-x="882" 
d="M240 -9q-53 0 -94 20.5t-64 55.5t-23 78q0 58 27 91.5t90.5 47.5t174.5 14h51v-51h-50q-84 0 -131 -9t-66 -30t-19 -59q0 -43 30.5 -70t83.5 -27q42 0 74 19.5t50.5 54t18.5 80.5v120q0 64 -28.5 92t-87.5 28q-46 0 -86.5 -12t-82.5 -40l-28 60q39 27 91.5 42t106.5 15
q77 0 120.5 -31.5t57.5 -93.5h-25q30 61 79.5 93t117.5 32q97 0 153 -63t56 -174v-27h-377v51h323l-17 -15q0 79 -36 123.5t-104 44.5q-71 0 -112.5 -47t-41.5 -136v-8q0 -97 43.5 -150t127.5 -53q43 0 82.5 14t75.5 44l29 -57q-34 -32 -85 -49.5t-104 -17.5
q-89 0 -146.5 40.5t-79.5 116.5h21q-15 -73 -67 -115t-129 -42z" />
    <glyph glyph-name="ccedilla" unicode="&#xe7;" horiz-adv-x="495" 
d="M290 -9q-74 0 -128.5 32t-84 91t-29.5 140q0 82 30 139.5t84.5 87.5t127.5 30q48 0 93.5 -17t75.5 -48l-29 -58q-30 29 -65.5 43t-69.5 14q-78 0 -121 -49t-43 -143q0 -93 43 -144t121 -51q33 0 68.5 13t66.5 43l29 -57q-31 -32 -77 -49t-92 -17zM290 -192q-26 0 -49.5 5
t-40.5 14l14 44q18 -8 34.5 -12t38.5 -4q27 0 43 9.5t16 27.5q0 28 -38 28q-11 0 -21.5 -1.5t-25.5 -7.5l-17 16l15 93h51l-13 -75l-24 6q11 3 23 5t22 2q36 0 60 -18t24 -50q0 -37 -31 -59.5t-81 -22.5z" />
    <glyph glyph-name="egrave" unicode="&#xe8;" horiz-adv-x="544" 
d="M302 -9q-118 0 -186 68.5t-68 190.5q0 79 30 137.5t84 91t124 32.5q69 0 116 -29t72 -82.5t25 -126.5v-30h-389v51h336l-17 -13q0 80 -36 125t-107 45q-75 0 -117 -52.5t-42 -141.5v-9q0 -94 46.5 -142.5t130.5 -48.5q45 0 84.5 13.5t75.5 44.5l28 -57
q-33 -32 -83.5 -49.5t-106.5 -17.5zM257 551l-132 202h87l103 -202h-58z" />
    <glyph glyph-name="eacute" unicode="&#xe9;" horiz-adv-x="544" 
d="M302 -9q-118 0 -186 68.5t-68 190.5q0 79 30 137.5t84 91t124 32.5q69 0 116 -29t72 -82.5t25 -126.5v-30h-389v51h336l-17 -13q0 80 -36 125t-107 45q-75 0 -117 -52.5t-42 -141.5v-9q0 -94 46.5 -142.5t130.5 -48.5q45 0 84.5 13.5t75.5 44.5l28 -57
q-33 -32 -83.5 -49.5t-106.5 -17.5zM257 551l103 202h87l-132 -202h-58z" />
    <glyph glyph-name="ecircumflex" unicode="&#xea;" horiz-adv-x="544" 
d="M302 -9q-118 0 -186 68.5t-68 190.5q0 79 30 137.5t84 91t124 32.5q69 0 116 -29t72 -82.5t25 -126.5v-30h-389v51h336l-17 -13q0 80 -36 125t-107 45q-75 0 -117 -52.5t-42 -141.5v-9q0 -94 46.5 -142.5t130.5 -48.5q45 0 84.5 13.5t75.5 44.5l28 -57
q-33 -32 -83.5 -49.5t-106.5 -17.5zM138 551l109 202h78l109 -202h-56l-92 148l-92 -148h-56z" />
    <glyph glyph-name="edieresis" unicode="&#xeb;" horiz-adv-x="544" 
d="M302 -9q-118 0 -186 68.5t-68 190.5q0 79 30 137.5t84 91t124 32.5q69 0 116 -29t72 -82.5t25 -126.5v-30h-389v51h336l-17 -13q0 80 -36 125t-107 45q-75 0 -117 -52.5t-42 -141.5v-9q0 -94 46.5 -142.5t130.5 -48.5q45 0 84.5 13.5t75.5 44.5l28 -57
q-33 -32 -83.5 -49.5t-106.5 -17.5zM330 609v86h86v-86h-86zM156 609v86h86v-86h-86z" />
    <glyph glyph-name="igrave" unicode="&#xec;" horiz-adv-x="238" 
d="M79 0v502h81v-502h-81zM90 551l-132 202h87l103 -202h-58z" />
    <glyph glyph-name="iacute" unicode="&#xed;" horiz-adv-x="238" 
d="M79 0v502h81v-502h-81zM90 551l103 202h87l-132 -202h-58z" />
    <glyph glyph-name="icircumflex" unicode="&#xee;" horiz-adv-x="238" 
d="M79 0v502h81v-502h-81zM-29 551l109 202h78l109 -202h-56l-92 148l-92 -148h-56z" />
    <glyph glyph-name="idieresis" unicode="&#xef;" horiz-adv-x="238" 
d="M79 0v502h81v-502h-81zM163 609v86h86v-86h-86zM-11 609v86h86v-86h-86z" />
    <glyph glyph-name="eth" unicode="&#xf0;" horiz-adv-x="576" 
d="M285 -9q-71 0 -124.5 29.5t-83 82t-29.5 123.5q0 70 29 122.5t82 81.5t122 29q76 0 124.5 -38t68.5 -116h-23q1 88 -34 166.5t-104 134.5l20 -3l-197 -83l-19 45l172 72l-2 -13q-30 21 -66 37.5t-77 26.5l17 55q59 -13 108 -35.5t89 -51.5l-19 3l117 49l19 -44l-98 -42
l3 16q51 -44 83.5 -101t48.5 -121.5t16 -135.5q0 -93 -28 -157.5t-82 -98t-133 -33.5zM286 57q73 0 115 45t42 123t-41.5 123t-115.5 45q-72 0 -114 -44.5t-42 -123.5t41.5 -123.5t114.5 -44.5z" />
    <glyph glyph-name="ntilde" unicode="&#xf1;" horiz-adv-x="586" 
d="M79 0v386q0 28 -2.5 57.5t-5.5 58.5h78l10 -110h-12q22 58 70.5 88.5t112.5 30.5q89 0 134.5 -47.5t45.5 -149.5v-314h-81v309q0 71 -28.5 103.5t-88.5 32.5q-70 0 -111 -43t-41 -115v-287h-81zM158 590l-46 3q5 64 34 98.5t73 34.5q22 0 40.5 -10t42.5 -31
q22 -20 35.5 -27.5t26.5 -7.5q51 0 62 79l46 -3q-5 -64 -33.5 -98.5t-72.5 -34.5q-21 0 -40 10t-44 32q-21 19 -34.5 26.5t-27.5 7.5q-26 0 -41.5 -20.5t-20.5 -58.5z" />
    <glyph glyph-name="ograve" unicode="&#xf2;" horiz-adv-x="571" 
d="M285 -9q-72 0 -125.5 31.5t-82.5 90t-29 138.5q0 81 29 139t82.5 89.5t125.5 31.5q73 0 126.5 -31.5t83 -89.5t29.5 -139q0 -80 -29.5 -138.5t-83 -90t-126.5 -31.5zM285 57q72 0 114 49.5t42 144.5q0 96 -42.5 145.5t-113.5 49.5t-113 -49.5t-42 -145.5q0 -95 42 -144.5
t113 -49.5zM257 551l-132 202h87l103 -202h-58z" />
    <glyph glyph-name="oacute" unicode="&#xf3;" horiz-adv-x="571" 
d="M285 -9q-72 0 -125.5 31.5t-82.5 90t-29 138.5q0 81 29 139t82.5 89.5t125.5 31.5q73 0 126.5 -31.5t83 -89.5t29.5 -139q0 -80 -29.5 -138.5t-83 -90t-126.5 -31.5zM285 57q72 0 114 49.5t42 144.5q0 96 -42.5 145.5t-113.5 49.5t-113 -49.5t-42 -145.5q0 -95 42 -144.5
t113 -49.5zM257 551l103 202h87l-132 -202h-58z" />
    <glyph glyph-name="ocircumflex" unicode="&#xf4;" horiz-adv-x="571" 
d="M285 -9q-72 0 -125.5 31.5t-82.5 90t-29 138.5q0 81 29 139t82.5 89.5t125.5 31.5q73 0 126.5 -31.5t83 -89.5t29.5 -139q0 -80 -29.5 -138.5t-83 -90t-126.5 -31.5zM285 57q72 0 114 49.5t42 144.5q0 96 -42.5 145.5t-113.5 49.5t-113 -49.5t-42 -145.5q0 -95 42 -144.5
t113 -49.5zM138 551l109 202h78l109 -202h-56l-92 148l-92 -148h-56z" />
    <glyph glyph-name="otilde" unicode="&#xf5;" horiz-adv-x="571" 
d="M285 -9q-72 0 -125.5 31.5t-82.5 90t-29 138.5q0 81 29 139t82.5 89.5t125.5 31.5q73 0 126.5 -31.5t83 -89.5t29.5 -139q0 -80 -29.5 -138.5t-83 -90t-126.5 -31.5zM285 57q72 0 114 49.5t42 144.5q0 96 -42.5 145.5t-113.5 49.5t-113 -49.5t-42 -145.5q0 -95 42 -144.5
t113 -49.5zM152 590l-46 3q5 64 34 98.5t73 34.5q22 0 40.5 -10t42.5 -31q22 -20 35.5 -27.5t26.5 -7.5q51 0 62 79l46 -3q-5 -64 -33.5 -98.5t-72.5 -34.5q-21 0 -40 10t-44 32q-21 19 -34.5 26.5t-27.5 7.5q-26 0 -41.5 -20.5t-20.5 -58.5z" />
    <glyph glyph-name="odieresis" unicode="&#xf6;" horiz-adv-x="571" 
d="M285 -9q-72 0 -125.5 31.5t-82.5 90t-29 138.5q0 81 29 139t82.5 89.5t125.5 31.5q73 0 126.5 -31.5t83 -89.5t29.5 -139q0 -80 -29.5 -138.5t-83 -90t-126.5 -31.5zM285 57q72 0 114 49.5t42 144.5q0 96 -42.5 145.5t-113.5 49.5t-113 -49.5t-42 -145.5q0 -95 42 -144.5
t113 -49.5zM330 609v86h86v-86h-86zM156 609v86h86v-86h-86z" />
    <glyph glyph-name="divide" unicode="&#xf7;" 
d="M53 256v62h494v-62h-494zM252 45v86h86v-86h-86zM252 443v86h86v-86h-86z" />
    <glyph glyph-name="oslash" unicode="&#xf8;" horiz-adv-x="571" 
d="M285 -9q-72 0 -125.5 31.5t-82.5 90t-29 138.5q0 81 29 139t82.5 89.5t125.5 31.5q73 0 126.5 -31.5t83 -89.5t29.5 -139q0 -80 -29.5 -138.5t-83 -90t-126.5 -31.5zM285 57q75 0 118 50.5t43 144.5q0 93 -43 143.5t-118 50.5t-117.5 -50.5t-42.5 -143.5
q0 -94 42.5 -144.5t117.5 -50.5zM147 -39l-43 27l322 554l44 -27z" />
    <glyph glyph-name="ugrave" unicode="&#xf9;" horiz-adv-x="577" 
d="M256 -9q-89 0 -134.5 49t-45.5 150v312h81v-310q0 -69 28 -101.5t87 -32.5q66 0 106 43t40 115v286h81v-502h-79v113h13q-21 -58 -67.5 -90t-109.5 -32zM260 552l-132 202h87l103 -202h-58z" />
    <glyph glyph-name="uacute" unicode="&#xfa;" horiz-adv-x="577" 
d="M256 -9q-89 0 -134.5 49t-45.5 150v312h81v-310q0 -69 28 -101.5t87 -32.5q66 0 106 43t40 115v286h81v-502h-79v113h13q-21 -58 -67.5 -90t-109.5 -32zM260 552l103 202h87l-132 -202h-58z" />
    <glyph glyph-name="ucircumflex" unicode="&#xfb;" horiz-adv-x="577" 
d="M256 -9q-89 0 -134.5 49t-45.5 150v312h81v-310q0 -69 28 -101.5t87 -32.5q66 0 106 43t40 115v286h81v-502h-79v113h13q-21 -58 -67.5 -90t-109.5 -32zM141 552l109 202h78l109 -202h-56l-92 148l-92 -148h-56z" />
    <glyph glyph-name="udieresis" unicode="&#xfc;" horiz-adv-x="577" 
d="M256 -9q-89 0 -134.5 49t-45.5 150v312h81v-310q0 -69 28 -101.5t87 -32.5q66 0 106 43t40 115v286h81v-502h-79v113h13q-21 -58 -67.5 -90t-109.5 -32zM333 610v86h86v-86h-86zM159 610v86h86v-86h-86z" />
    <glyph glyph-name="yacute" unicode="&#xfd;" horiz-adv-x="531" 
d="M59 -227l-19 67q47 11 78.5 25.5t52.5 38.5t36 60l26 59l-2 -34l-219 513h88l181 -441h-26l179 441h85l-232 -544q-20 -48 -44 -80.5t-51.5 -53t-60.5 -32.5t-72 -19zM236 551l103 202h87l-132 -202h-58z" />
    <glyph glyph-name="thorn" unicode="&#xfe;" 
d="M79 -216v952h81v-353h-12q16 59 65.5 93.5t117.5 34.5t117.5 -31t77 -89t27.5 -140q0 -81 -27.5 -139t-77 -89.5t-117.5 -31.5t-117 34t-65 93h11v-334h-81zM315 57q71 0 113.5 49.5t42.5 144.5q0 96 -42.5 145.5t-113.5 49.5t-114 -49.5t-43 -145.5q0 -95 43 -144.5
t114 -49.5z" />
    <glyph glyph-name="ydieresis" unicode="&#xff;" horiz-adv-x="531" 
d="M59 -227l-19 67q47 11 78.5 25.5t52.5 38.5t36 60l26 59l-2 -34l-219 513h88l181 -441h-26l179 441h85l-232 -544q-20 -48 -44 -80.5t-51.5 -53t-60.5 -32.5t-72 -19zM309 609v86h86v-86h-86zM135 609v86h86v-86h-86z" />
    <glyph glyph-name="Amacron" unicode="&#x100;" horiz-adv-x="735" 
d="M18 0l311 705h72l316 -705h-86l-88 201l37 -21h-431l40 21l-86 -201h-85zM364 610l-162 -380l-24 18h372l-18 -18l-166 380h-2zM203 814v55h326v-55h-326z" />
    <glyph glyph-name="amacron" unicode="&#x101;" 
d="M270 -9q-67 0 -117 31.5t-77.5 89.5t-27.5 139q0 82 27.5 140t77.5 89t117 31q68 0 117.5 -34.5t65.5 -93.5h-12l11 119h78q-3 -29 -5.5 -58.5t-2.5 -57.5v-386h-81v118h11q-16 -59 -66 -93t-116 -34zM286 57q72 0 114 49.5t42 144.5q0 96 -42 145.5t-114 49.5
q-71 0 -113.5 -49.5t-42.5 -145.5q0 -95 42.5 -144.5t113.5 -49.5zM146 625v55h296v-55h-296z" />
    <glyph glyph-name="Abreve" unicode="&#x102;" horiz-adv-x="735" 
d="M18 0l311 705h72l316 -705h-86l-88 201l37 -21h-431l40 21l-86 -201h-85zM364 610l-162 -380l-24 18h372l-18 -18l-166 380h-2zM366 760q-71 0 -117 45t-52 123l51 7q5 -57 36 -89t82 -32t82.5 32t35.5 89l51 -7q-6 -78 -52 -123t-117 -45z" />
    <glyph glyph-name="abreve" unicode="&#x103;" 
d="M270 -9q-67 0 -117 31.5t-77.5 89.5t-27.5 139q0 82 27.5 140t77.5 89t117 31q68 0 117.5 -34.5t65.5 -93.5h-12l11 119h78q-3 -29 -5.5 -58.5t-2.5 -57.5v-386h-81v118h11q-16 -59 -66 -93t-116 -34zM286 57q72 0 114 49.5t42 144.5q0 96 -42 145.5t-114 49.5
q-71 0 -113.5 -49.5t-42.5 -145.5q0 -95 42.5 -144.5t113.5 -49.5zM294 549q-45 0 -79 23t-53 65.5t-22 101.5l51 5q4 -67 30.5 -103.5t72.5 -36.5t72.5 36.5t30.5 103.5l51 -5q-2 -59 -21.5 -101.5t-53.5 -65.5t-79 -23z" />
    <glyph glyph-name="Aogonek" unicode="&#x104;" horiz-adv-x="735" 
d="M18 0l311 705h72l316 -705h-86l-88 201l37 -21h-431l40 21l-86 -201h-85zM364 610l-162 -380l-24 18h372l-18 -18l-166 380h-2zM678 -192q-48 0 -77 26t-29 71q0 40 26 75.5t70 55.5l29 -36q-16 -6 -31.5 -18.5t-25.5 -29.5t-10 -38q0 -28 17 -42t41 -14q14 0 27 3t27 9
l14 -45q-14 -8 -34 -12.5t-44 -4.5z" />
    <glyph glyph-name="aogonek" unicode="&#x105;" 
d="M270 -9q-67 0 -117 31.5t-77.5 89.5t-27.5 139q0 82 27.5 140t77.5 89t117 31q68 0 117.5 -34.5t65.5 -93.5h-12l11 119h78q-3 -29 -5.5 -58.5t-2.5 -57.5v-386h-81v118h11q-16 -59 -66 -93t-116 -34zM286 57q72 0 114 49.5t42 144.5q0 96 -42 145.5t-114 49.5
q-71 0 -113.5 -49.5t-42.5 -145.5q0 -95 42.5 -144.5t113.5 -49.5zM493 -192q-48 0 -77 26t-29 71q0 40 26 75.5t70 55.5l29 -36q-16 -6 -31.5 -18.5t-25.5 -29.5t-10 -38q0 -28 17 -42t41 -14q14 0 27 3t27 9l14 -45q-14 -8 -34 -12.5t-44 -4.5z" />
    <glyph glyph-name="Cacute" unicode="&#x106;" horiz-adv-x="684" 
d="M395 -9q-106 0 -180 44t-113.5 125t-39.5 193t39.5 192.5t113.5 124.5t180 44q75 0 134 -23t103 -67l-31 -66q-48 42 -95 61.5t-110 19.5q-121 0 -184 -75t-63 -211t63 -211.5t184 -75.5q63 0 110 19.5t95 62.5l31 -67q-44 -43 -103 -66.5t-134 -23.5zM361 765l118 172
h91l-147 -172h-62z" />
    <glyph glyph-name="cacute" unicode="&#x107;" horiz-adv-x="495" 
d="M290 -9q-74 0 -128.5 32t-84 91t-29.5 140q0 82 30 139.5t84.5 87.5t127.5 30q48 0 93.5 -17t75.5 -48l-29 -58q-30 29 -65.5 43t-69.5 14q-78 0 -121 -49t-43 -143q0 -93 43 -144t121 -51q33 0 68.5 13t66.5 43l29 -57q-31 -32 -77 -49t-92 -17zM258 551l103 202h87
l-132 -202h-58z" />
    <glyph glyph-name="Ccircumflex" unicode="&#x108;" horiz-adv-x="684" 
d="M395 -9q-106 0 -180 44t-113.5 125t-39.5 193t39.5 192.5t113.5 124.5t180 44q75 0 134 -23t103 -67l-31 -66q-48 42 -95 61.5t-110 19.5q-121 0 -184 -75t-63 -211t63 -211.5t184 -75.5q63 0 110 19.5t95 62.5l31 -67q-44 -43 -103 -66.5t-134 -23.5zM231 765l123 172
h76l123 -172h-61l-100 119l-100 -119h-61z" />
    <glyph glyph-name="ccircumflex" unicode="&#x109;" horiz-adv-x="495" 
d="M290 -9q-74 0 -128.5 32t-84 91t-29.5 140q0 82 30 139.5t84.5 87.5t127.5 30q48 0 93.5 -17t75.5 -48l-29 -58q-30 29 -65.5 43t-69.5 14q-78 0 -121 -49t-43 -143q0 -93 43 -144t121 -51q33 0 68.5 13t66.5 43l29 -57q-31 -32 -77 -49t-92 -17zM139 551l109 202h78
l109 -202h-56l-92 148l-92 -148h-56z" />
    <glyph glyph-name="Cdotaccent" unicode="&#x10a;" horiz-adv-x="684" 
d="M395 -9q-106 0 -180 44t-113.5 125t-39.5 193t39.5 192.5t113.5 124.5t180 44q75 0 134 -23t103 -67l-31 -66q-48 42 -95 61.5t-110 19.5q-121 0 -184 -75t-63 -211t63 -211.5t184 -75.5q63 0 110 19.5t95 62.5l31 -67q-44 -43 -103 -66.5t-134 -23.5zM347 807v88h90v-88
h-90z" />
    <glyph glyph-name="cdotaccent" unicode="&#x10b;" horiz-adv-x="495" 
d="M290 -9q-74 0 -128.5 32t-84 91t-29.5 140q0 82 30 139.5t84.5 87.5t127.5 30q48 0 93.5 -17t75.5 -48l-29 -58q-30 29 -65.5 43t-69.5 14q-78 0 -121 -49t-43 -143q0 -93 43 -144t121 -51q33 0 68.5 13t66.5 43l29 -57q-31 -32 -77 -49t-92 -17zM241 609v88h92v-88h-92z
" />
    <glyph glyph-name="Ccaron" unicode="&#x10c;" horiz-adv-x="684" 
d="M395 -9q-106 0 -180 44t-113.5 125t-39.5 193t39.5 192.5t113.5 124.5t180 44q75 0 134 -23t103 -67l-31 -66q-48 42 -95 61.5t-110 19.5q-121 0 -184 -75t-63 -211t63 -211.5t184 -75.5q63 0 110 19.5t95 62.5l31 -67q-44 -43 -103 -66.5t-134 -23.5zM354 765l-123 172
h61l100 -119l100 119h61l-123 -172h-76z" />
    <glyph glyph-name="ccaron" unicode="&#x10d;" horiz-adv-x="495" 
d="M290 -9q-74 0 -128.5 32t-84 91t-29.5 140q0 82 30 139.5t84.5 87.5t127.5 30q48 0 93.5 -17t75.5 -48l-29 -58q-30 29 -65.5 43t-69.5 14q-78 0 -121 -49t-43 -143q0 -93 43 -144t121 -51q33 0 68.5 13t66.5 43l29 -57q-31 -32 -77 -49t-92 -17zM248 551l-109 202h56
l92 -148l92 148h56l-109 -202h-78z" />
    <glyph glyph-name="Dcaron" unicode="&#x10e;" horiz-adv-x="747" 
d="M88 0v705h234q117 0 198 -40.5t123 -119t42 -192.5q0 -113 -42 -192t-123 -120t-198 -41h-234zM171 71h145q144 0 214 70.5t70 211.5q0 142 -70 212t-214 70h-145v-564zM342 765l-123 172h61l100 -119l100 119h61l-123 -172h-76z" />
    <glyph glyph-name="dcaron" unicode="&#x10f;" 
d="M269 -9q-66 0 -116 31.5t-77.5 89.5t-27.5 139q0 82 27.5 140t77.5 89t116 31q68 0 117.5 -34t66.5 -92h-12v351h81v-736h-80v120h11q-16 -60 -66 -94.5t-118 -34.5zM286 57q71 0 114 49.5t43 144.5q0 96 -43 145.5t-114 49.5t-113.5 -49.5t-42.5 -145.5
q0 -95 42.5 -144.5t113.5 -49.5zM571 546v190h65l-23 -190h-42z" />
    <glyph glyph-name="Dcroat" unicode="&#x110;" horiz-adv-x="747" 
d="M88 0v705h234q117 0 198 -40.5t123 -119t42 -192.5q0 -113 -42 -192t-123 -120t-198 -41h-234zM171 71h145q144 0 214 70.5t70 211.5q0 142 -70 212t-214 70h-145v-564zM2 326v64h367v-64h-367z" />
    <glyph glyph-name="dcroat" unicode="&#x111;" 
d="M269 -9q-66 0 -116 31t-77.5 88.5t-27.5 137.5t27.5 137t77.5 88t116 31q67 0 116.5 -34t65.5 -92h-11v204h-193v61h193v93h81v-93h95v-61h-95v-582h-80v119h11q-17 -59 -66 -93.5t-117 -34.5zM286 57q70 0 113 48.5t43 142.5q0 93 -43 141.5t-113 48.5
q-71 0 -113.5 -48.5t-42.5 -141.5q0 -94 42.5 -142.5t113.5 -48.5z" />
    <glyph glyph-name="Emacron" unicode="&#x112;" horiz-adv-x="588" 
d="M88 0v705h450v-68h-369v-245h347v-69h-347v-254h369v-69h-450zM165 814v55h326v-55h-326z" />
    <glyph glyph-name="emacron" unicode="&#x113;" horiz-adv-x="544" 
d="M302 -9q-118 0 -186 68.5t-68 190.5q0 79 30 137.5t84 91t124 32.5q69 0 116 -29t72 -82.5t25 -126.5v-30h-389v51h336l-17 -13q0 80 -36 125t-107 45q-75 0 -117 -52.5t-42 -141.5v-9q0 -94 46.5 -142.5t130.5 -48.5q45 0 84.5 13.5t75.5 44.5l28 -57
q-33 -32 -83.5 -49.5t-106.5 -17.5zM138 625v55h296v-55h-296z" />
    <glyph glyph-name="Ebreve" unicode="&#x114;" horiz-adv-x="588" 
d="M88 0v705h450v-68h-369v-245h347v-69h-347v-254h369v-69h-450zM328 760q-71 0 -117 45t-52 123l51 7q5 -57 36 -89t82 -32t82.5 32t35.5 89l51 -7q-6 -78 -52 -123t-117 -45z" />
    <glyph glyph-name="ebreve" unicode="&#x115;" horiz-adv-x="544" 
d="M302 -9q-118 0 -186 68.5t-68 190.5q0 79 30 137.5t84 91t124 32.5q69 0 116 -29t72 -82.5t25 -126.5v-30h-389v51h336l-17 -13q0 80 -36 125t-107 45q-75 0 -117 -52.5t-42 -141.5v-9q0 -94 46.5 -142.5t130.5 -48.5q45 0 84.5 13.5t75.5 44.5l28 -57
q-33 -32 -83.5 -49.5t-106.5 -17.5zM286 549q-45 0 -79 23t-53 65.5t-22 101.5l51 5q4 -67 30.5 -103.5t72.5 -36.5t72.5 36.5t30.5 103.5l51 -5q-2 -59 -21.5 -101.5t-53.5 -65.5t-79 -23z" />
    <glyph glyph-name="Edotaccent" unicode="&#x116;" horiz-adv-x="588" 
d="M88 0v705h450v-68h-369v-245h347v-69h-347v-254h369v-69h-450zM283 807v88h90v-88h-90z" />
    <glyph glyph-name="edotaccent" unicode="&#x117;" horiz-adv-x="544" 
d="M302 -9q-118 0 -186 68.5t-68 190.5q0 79 30 137.5t84 91t124 32.5q69 0 116 -29t72 -82.5t25 -126.5v-30h-389v51h336l-17 -13q0 80 -36 125t-107 45q-75 0 -117 -52.5t-42 -141.5v-9q0 -94 46.5 -142.5t130.5 -48.5q45 0 84.5 13.5t75.5 44.5l28 -57
q-33 -32 -83.5 -49.5t-106.5 -17.5zM240 609v88h92v-88h-92z" />
    <glyph glyph-name="Eogonek" unicode="&#x118;" horiz-adv-x="588" 
d="M88 0v705h450v-68h-369v-245h347v-69h-347v-254h369v-69h-450zM486 -192q-48 0 -77 26t-29 71q0 40 26 75.5t70 55.5l29 -36q-16 -6 -31.5 -18.5t-25.5 -29.5t-10 -38q0 -28 17 -42t41 -14q14 0 27 3t27 9l14 -45q-14 -8 -34 -12.5t-44 -4.5z" />
    <glyph glyph-name="eogonek" unicode="&#x119;" horiz-adv-x="544" 
d="M302 -9q-118 0 -186 68.5t-68 190.5q0 79 30 137.5t84 91t124 32.5q69 0 116 -29t72 -82.5t25 -126.5v-30h-389v51h336l-17 -13q0 80 -36 125t-107 45q-75 0 -117 -52.5t-42 -141.5v-9q0 -94 46.5 -142.5t130.5 -48.5q45 0 84.5 13.5t75.5 44.5l28 -57
q-33 -32 -83.5 -49.5t-106.5 -17.5zM350 -192q-48 0 -77 26t-29 71q0 40 26 75.5t70 55.5l29 -36q-16 -6 -31.5 -18.5t-25.5 -29.5t-10 -38q0 -28 17 -42t41 -14q14 0 27 3t27 9l14 -45q-14 -8 -34 -12.5t-44 -4.5z" />
    <glyph glyph-name="Ecaron" unicode="&#x11a;" horiz-adv-x="588" 
d="M88 0v705h450v-68h-369v-245h347v-69h-347v-254h369v-69h-450zM290 765l-123 172h61l100 -119l100 119h61l-123 -172h-76z" />
    <glyph glyph-name="ecaron" unicode="&#x11b;" horiz-adv-x="544" 
d="M302 -9q-118 0 -186 68.5t-68 190.5q0 79 30 137.5t84 91t124 32.5q69 0 116 -29t72 -82.5t25 -126.5v-30h-389v51h336l-17 -13q0 80 -36 125t-107 45q-75 0 -117 -52.5t-42 -141.5v-9q0 -94 46.5 -142.5t130.5 -48.5q45 0 84.5 13.5t75.5 44.5l28 -57
q-33 -32 -83.5 -49.5t-106.5 -17.5zM247 551l-109 202h56l92 -148l92 148h56l-109 -202h-78z" />
    <glyph glyph-name="Gcircumflex" unicode="&#x11c;" horiz-adv-x="731" 
d="M412 -9q-116 0 -194 43t-117 124t-39 194q0 112 41 193t118 125t186 44q77 0 133.5 -22.5t101.5 -66.5l-31 -65q-33 29 -63.5 46t-63.5 25.5t-77 8.5q-125 0 -191.5 -75.5t-66.5 -213.5q0 -139 64.5 -213t200.5 -74q50 0 95.5 9.5t88.5 27.5l-18 -45v248h-180v65h251
v-327q-43 -23 -108.5 -37t-130.5 -14zM239 765l123 172h76l123 -172h-61l-100 119l-100 -119h-61z" />
    <glyph glyph-name="gcircumflex" unicode="&#x11d;" horiz-adv-x="603" 
d="M300 -223q-65 0 -120 16t-99 49l24 61q31 -22 61 -35t62 -19.5t68 -6.5q74 0 112 39t38 111v147h10q-16 -59 -66 -93.5t-117 -34.5q-69 0 -119.5 30.5t-78 87t-27.5 133.5q0 76 27.5 132t78 86.5t119.5 30.5q68 0 117.5 -34t65.5 -94l-10 10l9 109h79q-4 -29 -6 -58.5
t-2 -57.5v-383q0 -112 -57.5 -169t-168.5 -57zM288 77q73 0 115 48.5t42 136.5t-42 136t-115 48q-72 0 -115 -48t-43 -136t43 -136.5t115 -48.5zM157 551l109 202h78l109 -202h-56l-92 148l-92 -148h-56z" />
    <glyph glyph-name="Gbreve" unicode="&#x11e;" horiz-adv-x="731" 
d="M412 -9q-116 0 -194 43t-117 124t-39 194q0 112 41 193t118 125t186 44q77 0 133.5 -22.5t101.5 -66.5l-31 -65q-33 29 -63.5 46t-63.5 25.5t-77 8.5q-125 0 -191.5 -75.5t-66.5 -213.5q0 -139 64.5 -213t200.5 -74q50 0 95.5 9.5t88.5 27.5l-18 -45v248h-180v65h251
v-327q-43 -23 -108.5 -37t-130.5 -14zM400 760q-71 0 -117 45t-52 123l51 7q5 -57 36 -89t82 -32t82.5 32t35.5 89l51 -7q-6 -78 -52 -123t-117 -45z" />
    <glyph glyph-name="gbreve" unicode="&#x11f;" horiz-adv-x="603" 
d="M300 -223q-65 0 -120 16t-99 49l24 61q31 -22 61 -35t62 -19.5t68 -6.5q74 0 112 39t38 111v147h10q-16 -59 -66 -93.5t-117 -34.5q-69 0 -119.5 30.5t-78 87t-27.5 133.5q0 76 27.5 132t78 86.5t119.5 30.5q68 0 117.5 -34t65.5 -94l-10 10l9 109h79q-4 -29 -6 -58.5
t-2 -57.5v-383q0 -112 -57.5 -169t-168.5 -57zM288 77q73 0 115 48.5t42 136.5t-42 136t-115 48q-72 0 -115 -48t-43 -136t43 -136.5t115 -48.5zM305 549q-45 0 -79 23t-53 65.5t-22 101.5l51 5q4 -67 30.5 -103.5t72.5 -36.5t72.5 36.5t30.5 103.5l51 -5
q-2 -59 -21.5 -101.5t-53.5 -65.5t-79 -23z" />
    <glyph glyph-name="Gdotaccent" unicode="&#x120;" horiz-adv-x="731" 
d="M412 -9q-116 0 -194 43t-117 124t-39 194q0 112 41 193t118 125t186 44q77 0 133.5 -22.5t101.5 -66.5l-31 -65q-33 29 -63.5 46t-63.5 25.5t-77 8.5q-125 0 -191.5 -75.5t-66.5 -213.5q0 -139 64.5 -213t200.5 -74q50 0 95.5 9.5t88.5 27.5l-18 -45v248h-180v65h251
v-327q-43 -23 -108.5 -37t-130.5 -14zM355 807v88h90v-88h-90z" />
    <glyph glyph-name="gdotaccent" unicode="&#x121;" horiz-adv-x="603" 
d="M300 -223q-65 0 -120 16t-99 49l24 61q31 -22 61 -35t62 -19.5t68 -6.5q74 0 112 39t38 111v147h10q-16 -59 -66 -93.5t-117 -34.5q-69 0 -119.5 30.5t-78 87t-27.5 133.5q0 76 27.5 132t78 86.5t119.5 30.5q68 0 117.5 -34t65.5 -94l-10 10l9 109h79q-4 -29 -6 -58.5
t-2 -57.5v-383q0 -112 -57.5 -169t-168.5 -57zM288 77q73 0 115 48.5t42 136.5t-42 136t-115 48q-72 0 -115 -48t-43 -136t43 -136.5t115 -48.5zM259 609v88h92v-88h-92z" />
    <glyph glyph-name="uni0122" unicode="&#x122;" horiz-adv-x="731" 
d="M412 -9q-116 0 -194 43t-117 124t-39 194q0 112 41 193t118 125t186 44q77 0 133.5 -22.5t101.5 -66.5l-31 -65q-33 29 -63.5 46t-63.5 25.5t-77 8.5q-125 0 -191.5 -75.5t-66.5 -213.5q0 -139 64.5 -213t200.5 -74q50 0 95.5 9.5t88.5 27.5l-18 -45v248h-180v65h251
v-327q-43 -23 -108.5 -37t-130.5 -14zM410 -268l-36 26q23 24 30.5 45t7.5 45l21 -10h-70v82h99v-60q0 -37 -12.5 -69.5t-39.5 -58.5z" />
    <glyph glyph-name="uni0123" unicode="&#x123;" horiz-adv-x="603" 
d="M300 -223q-65 0 -120 16t-99 49l24 61q31 -22 61 -35t62 -19.5t68 -6.5q74 0 112 39t38 111v147h10q-16 -59 -66 -93.5t-117 -34.5q-69 0 -119.5 30.5t-78 87t-27.5 133.5q0 76 27.5 132t78 86.5t119.5 30.5q68 0 117.5 -34t65.5 -94l-10 10l9 109h79q-4 -29 -6 -58.5
t-2 -57.5v-383q0 -112 -57.5 -169t-168.5 -57zM288 77q73 0 115 48.5t42 136.5t-42 136t-115 48q-72 0 -115 -48t-43 -136t43 -136.5t115 -48.5zM255 567v60q0 38 13 70t40 58l35 -25q-22 -25 -30 -46t-8 -45l-21 11h70v-83h-99z" />
    <glyph glyph-name="Hcircumflex" unicode="&#x124;" horiz-adv-x="766" 
d="M88 0v705h83v-312h425v312h82v-705h-82v322h-425v-322h-83zM223 765l123 172h76l123 -172h-61l-100 119l-100 -119h-61z" />
    <glyph glyph-name="hcircumflex" unicode="&#x125;" horiz-adv-x="586" 
d="M79 0v736h81v-345h-13q21 59 70.5 89.5t114.5 30.5q90 0 134 -48.5t44 -146.5v-316h-81v311q0 70 -27.5 102t-88.5 32q-70 0 -111.5 -43t-41.5 -113v-289h-81zM136 773l123 172h76l123 -172h-61l-100 119l-100 -119h-61z" />
    <glyph glyph-name="Hbar" unicode="&#x126;" horiz-adv-x="792" 
d="M102 0v519h-93v65h93v121h83v-121h423v121h83v-121h93v-65h-93v-519h-83v316h-423v-316h-83zM185 388h423v131h-423v-131z" />
    <glyph glyph-name="hbar" unicode="&#x127;" horiz-adv-x="586" 
d="M79 0v582h-96v61h96v93h81v-93h199v-61h-199v-195h-13q21 58 70.5 88.5t114.5 30.5q89 0 133.5 -48.5t44.5 -146.5v-311h-81v306q0 70 -28 101.5t-88 31.5q-70 0 -111.5 -42t-41.5 -113v-284h-81z" />
    <glyph glyph-name="Itilde" unicode="&#x128;" horiz-adv-x="259" 
d="M88 0v705h83v-705h-83zM-34 783l-46 3q6 64 38.5 98.5t81.5 34.5q23 0 46.5 -9.5t56.5 -31.5q31 -19 47 -27t31 -8q30 0 47 20.5t24 58.5l46 -3q-6 -64 -38 -98.5t-81 -34.5q-23 0 -47 10t-60 33q-27 18 -44 25.5t-31 7.5q-30 0 -47 -20.5t-24 -58.5z" />
    <glyph glyph-name="itilde" unicode="&#x129;" horiz-adv-x="238" 
d="M79 0v502h81v-502h-81zM-15 590l-46 3q5 64 34 98.5t73 34.5q22 0 40.5 -10t42.5 -31q22 -20 35.5 -27.5t26.5 -7.5q51 0 62 79l46 -3q-5 -64 -33.5 -98.5t-72.5 -34.5q-21 0 -40 10t-44 32q-21 19 -34.5 26.5t-27.5 7.5q-26 0 -41.5 -20.5t-20.5 -58.5z" />
    <glyph glyph-name="Imacron" unicode="&#x12a;" horiz-adv-x="259" 
d="M88 0v705h83v-705h-83zM-34 814v55h326v-55h-326z" />
    <glyph glyph-name="imacron" unicode="&#x12b;" horiz-adv-x="238" 
d="M79 0v502h81v-502h-81zM-29 625v55h296v-55h-296z" />
    <glyph glyph-name="Ibreve" unicode="&#x12c;" horiz-adv-x="259" 
d="M88 0v705h83v-705h-83zM129 760q-71 0 -117 45t-52 123l51 7q5 -57 36 -89t82 -32t82.5 32t35.5 89l51 -7q-6 -78 -52 -123t-117 -45z" />
    <glyph glyph-name="ibreve" unicode="&#x12d;" horiz-adv-x="238" 
d="M79 0v502h81v-502h-81zM119 549q-45 0 -79 23t-53 65.5t-22 101.5l51 5q4 -67 30.5 -103.5t72.5 -36.5t72.5 36.5t30.5 103.5l51 -5q-2 -59 -21.5 -101.5t-53.5 -65.5t-79 -23z" />
    <glyph glyph-name="Iogonek" unicode="&#x12e;" horiz-adv-x="259" 
d="M88 0v705h83v-705h-83zM139 -192q-48 0 -77 26t-29 71q0 40 26 75.5t70 55.5l29 -36q-16 -6 -31.5 -18.5t-25.5 -29.5t-10 -38q0 -28 17 -42t41 -14q14 0 27 3t27 9l14 -45q-14 -8 -34 -12.5t-44 -4.5z" />
    <glyph glyph-name="iogonek" unicode="&#x12f;" horiz-adv-x="238" 
d="M79 0v502h81v-502h-81zM69 607v91h100v-91h-100zM129 -192q-48 0 -77 26t-29 71q0 40 26 75.5t70 55.5l29 -36q-16 -6 -31.5 -18.5t-25.5 -29.5t-10 -38q0 -28 17 -42t41 -14q14 0 27 3t27 9l14 -45q-14 -8 -34 -12.5t-44 -4.5z" />
    <glyph glyph-name="Idotaccent" unicode="&#x130;" horiz-adv-x="259" 
d="M88 0v705h83v-705h-83zM84 807v88h90v-88h-90z" />
    <glyph glyph-name="dotlessi" unicode="&#x131;" horiz-adv-x="238" 
d="M79 0v502h81v-502h-81z" />
    <glyph glyph-name="IJ" unicode="&#x132;" horiz-adv-x="588" 
d="M88 0v705h83v-705h-83zM338 -186q-16 0 -36.5 1.5t-41.5 6.5v69q19 -4 35.5 -6.5t29.5 -2.5q46 0 69 28.5t23 90.5v704h83v-705q0 -60 -17.5 -102t-53 -63t-91.5 -21z" />
    <glyph glyph-name="Jcircumflex" unicode="&#x134;" horiz-adv-x="329" 
d="M79 -186q-16 0 -36.5 1.5t-41.5 6.5v69q19 -4 35.5 -6.5t29.5 -2.5q46 0 69 28.5t23 90.5v704h83v-705q0 -60 -17.5 -102t-53 -63t-91.5 -21zM39 765l123 172h76l123 -172h-61l-100 119l-100 -119h-61z" />
    <glyph glyph-name="jcircumflex" unicode="&#x135;" horiz-adv-x="238" 
d="M14 -220q-15 0 -35.5 3.5t-34.5 8.5v68q12 -4 28 -7.5t29 -3.5q42 0 63 26.5t21 86.5v540h81v-548q0 -86 -38 -130t-114 -44zM-23 551l109 202h78l109 -202h-56l-92 148l-92 -148h-56z" />
    <glyph glyph-name="uni0136" unicode="&#x136;" horiz-adv-x="634" 
d="M88 0v705h83v-320h2l338 320h106l-389 -364l1 42l416 -383h-109l-363 332h-2v-332h-83zM320 -268l-36 26q23 24 30.5 45t7.5 45l21 -10h-70v82h99v-60q0 -37 -12.5 -69.5t-39.5 -58.5z" />
    <glyph glyph-name="uni0137" unicode="&#x137;" horiz-adv-x="515" 
d="M79 0v736h81v-457h2l233 223h102l-275 -262l2 41l299 -281h-105l-256 236h-2v-236h-81zM254 -268l-36 26q23 24 30.5 45t7.5 45l21 -10h-70v82h99v-60q0 -37 -12.5 -69.5t-39.5 -58.5z" />
    <glyph glyph-name="kgreenlandic" unicode="&#x138;" horiz-adv-x="515" 
d="M79 0v502h81v-223h2l233 223h102l-275 -262l2 41l299 -281h-105l-256 236h-2v-236h-81z" />
    <glyph glyph-name="Lacute" unicode="&#x139;" horiz-adv-x="545" 
d="M88 0v705h83v-633h356v-72h-439zM98 765l118 172h91l-147 -172h-62z" />
    <glyph glyph-name="lacute" unicode="&#x13a;" horiz-adv-x="238" 
d="M79 0v736h81v-736h-81zM88 773l118 172h91l-147 -172h-62z" />
    <glyph glyph-name="uni013B" unicode="&#x13b;" horiz-adv-x="545" 
d="M88 0v705h83v-633h356v-72h-439zM305 -268l-36 26q23 24 30.5 45t7.5 45l21 -10h-70v82h99v-60q0 -37 -12.5 -69.5t-39.5 -58.5z" />
    <glyph glyph-name="uni013C" unicode="&#x13c;" horiz-adv-x="238" 
d="M79 0v736h81v-736h-81zM116 -268l-36 26q23 24 30.5 45t7.5 45l21 -10h-70v82h99v-60q0 -37 -12.5 -69.5t-39.5 -58.5z" />
    <glyph glyph-name="Lcaron" unicode="&#x13d;" horiz-adv-x="545" 
d="M88 0v705h83v-633h356v-72h-439zM282 480v225h72l-21 -225h-51z" />
    <glyph glyph-name="lcaron" unicode="&#x13e;" horiz-adv-x="238" 
d="M79 0v736h81v-736h-81zM207 546v190h65l-23 -190h-42z" />
    <glyph glyph-name="Ldot" unicode="&#x13f;" horiz-adv-x="545" 
d="M88 0v705h83v-633h356v-72h-439zM355 342v94h102v-94h-102z" />
    <glyph glyph-name="ldot" unicode="&#x140;" horiz-adv-x="238" 
d="M79 0v736h81v-736h-81zM214 308v94h102v-94h-102z" />
    <glyph glyph-name="Lslash" unicode="&#x141;" horiz-adv-x="545" 
d="M88 0v705h83v-633h356v-72h-439zM12 254l-33 58l360 207l33 -58z" />
    <glyph glyph-name="lslash" unicode="&#x142;" horiz-adv-x="238" 
d="M79 0v736h81v-736h-81zM4 257l-33 57l263 154l33 -57z" />
    <glyph glyph-name="Nacute" unicode="&#x143;" horiz-adv-x="747" 
d="M88 0v705h65l452 -600h-23v600h77v-705h-64l-452 600h22v-600h-77zM344 765l118 172h91l-147 -172h-62z" />
    <glyph glyph-name="nacute" unicode="&#x144;" horiz-adv-x="586" 
d="M79 0v386q0 28 -2.5 57.5t-5.5 58.5h78l10 -110h-12q22 58 70.5 88.5t112.5 30.5q89 0 134.5 -47.5t45.5 -149.5v-314h-81v309q0 71 -28.5 103.5t-88.5 32.5q-70 0 -111 -43t-41 -115v-287h-81zM263 551l103 202h87l-132 -202h-58z" />
    <glyph glyph-name="uni0145" unicode="&#x145;" horiz-adv-x="747" 
d="M88 0v705h65l452 -600h-23v600h77v-705h-64l-452 600h22v-600h-77zM372 -268l-36 26q23 24 30.5 45t7.5 45l21 -10h-70v82h99v-60q0 -37 -12.5 -69.5t-39.5 -58.5z" />
    <glyph glyph-name="uni0146" unicode="&#x146;" horiz-adv-x="586" 
d="M79 0v386q0 28 -2.5 57.5t-5.5 58.5h78l10 -110h-12q22 58 70.5 88.5t112.5 30.5q89 0 134.5 -47.5t45.5 -149.5v-314h-81v309q0 71 -28.5 103.5t-88.5 32.5q-70 0 -111 -43t-41 -115v-287h-81zM289 -268l-36 26q23 24 30.5 45t7.5 45l21 -10h-70v82h99v-60
q0 -37 -12.5 -69.5t-39.5 -58.5z" />
    <glyph glyph-name="Ncaron" unicode="&#x147;" horiz-adv-x="747" 
d="M88 0v705h65l452 -600h-23v600h77v-705h-64l-452 600h22v-600h-77zM337 765l-123 172h61l100 -119l100 119h61l-123 -172h-76z" />
    <glyph glyph-name="ncaron" unicode="&#x148;" horiz-adv-x="586" 
d="M79 0v386q0 28 -2.5 57.5t-5.5 58.5h78l10 -110h-12q22 58 70.5 88.5t112.5 30.5q89 0 134.5 -47.5t45.5 -149.5v-314h-81v309q0 71 -28.5 103.5t-88.5 32.5q-70 0 -111 -43t-41 -115v-287h-81zM253 551l-109 202h56l92 -148l92 148h56l-109 -202h-78z" />
    <glyph glyph-name="napostrophe" unicode="&#x149;" horiz-adv-x="675" 
d="M119 571l-36 26q22 22 28.5 42.5t6.5 39.5l23 -10h-70v86h98v-60q0 -36 -10.5 -66.5t-39.5 -57.5zM168 0v386q0 28 -2.5 57.5t-5.5 58.5h78l10 -110h-12q22 58 70.5 88.5t112.5 30.5q89 0 134.5 -47.5t45.5 -149.5v-314h-81v309q0 71 -28.5 103.5t-88.5 32.5
q-70 0 -111 -43t-41 -115v-287h-81z" />
    <glyph glyph-name="Eng" unicode="&#x14a;" horiz-adv-x="747" 
d="M443 -193l-6 63l46 4q48 3 73.5 31.5t25.5 79.5v53l13 -38l-452 600h22v-600h-77v705h65l452 -600h-23v600h77v-711q0 -58 -18.5 -98t-56.5 -61t-96 -25z" />
    <glyph glyph-name="eng" unicode="&#x14b;" horiz-adv-x="586" 
d="M79 0v386q0 28 -2.5 57.5t-5.5 58.5h78l10 -110h-12q22 58 71 88.5t113 30.5q89 0 134 -47.5t45 -149.5v-356q0 -85 -41 -131.5t-122 -46.5q-19 0 -37 3.5t-33 8.5v68q13 -4 26 -7.5t31 -3.5q47 0 71 29t24 88v343q0 71 -28 103.5t-88 32.5q-70 0 -111.5 -43t-41.5 -115
v-287h-81z" />
    <glyph glyph-name="Omacron" unicode="&#x14c;" horiz-adv-x="772" 
d="M62 353q0 112 38.5 192.5t111 124.5t174.5 44q99 0 172 -44t112.5 -124.5t39.5 -191.5q0 -112 -40 -193t-112.5 -125.5t-171.5 -44.5q-102 0 -174 44.5t-111 125.5t-39 192zM149 353q0 -136 60 -212.5t177 -76.5q112 0 174.5 76.5t62.5 212.5q0 137 -62 212.5t-175 75.5
q-117 0 -177 -75.5t-60 -212.5zM223 814v55h326v-55h-326z" />
    <glyph glyph-name="omacron" unicode="&#x14d;" horiz-adv-x="571" 
d="M285 -9q-72 0 -125.5 31.5t-82.5 90t-29 138.5q0 81 29 139t82.5 89.5t125.5 31.5q73 0 126.5 -31.5t83 -89.5t29.5 -139q0 -80 -29.5 -138.5t-83 -90t-126.5 -31.5zM285 57q72 0 114 49.5t42 144.5q0 96 -42.5 145.5t-113.5 49.5t-113 -49.5t-42 -145.5q0 -95 42 -144.5
t113 -49.5zM138 625v55h296v-55h-296z" />
    <glyph glyph-name="Obreve" unicode="&#x14e;" horiz-adv-x="772" 
d="M62 353q0 112 38.5 192.5t111 124.5t174.5 44q99 0 172 -44t112.5 -124.5t39.5 -191.5q0 -112 -40 -193t-112.5 -125.5t-171.5 -44.5q-102 0 -174 44.5t-111 125.5t-39 192zM149 353q0 -136 60 -212.5t177 -76.5q112 0 174.5 76.5t62.5 212.5q0 137 -62 212.5t-175 75.5
q-117 0 -177 -75.5t-60 -212.5zM386 760q-71 0 -117 45t-52 123l51 7q5 -57 36 -89t82 -32t82.5 32t35.5 89l51 -7q-6 -78 -52 -123t-117 -45z" />
    <glyph glyph-name="obreve" unicode="&#x14f;" horiz-adv-x="571" 
d="M285 -9q-72 0 -125.5 31.5t-82.5 90t-29 138.5q0 81 29 139t82.5 89.5t125.5 31.5q73 0 126.5 -31.5t83 -89.5t29.5 -139q0 -80 -29.5 -138.5t-83 -90t-126.5 -31.5zM285 57q72 0 114 49.5t42 144.5q0 96 -42.5 145.5t-113.5 49.5t-113 -49.5t-42 -145.5q0 -95 42 -144.5
t113 -49.5zM286 549q-45 0 -79 23t-53 65.5t-22 101.5l51 5q4 -67 30.5 -103.5t72.5 -36.5t72.5 36.5t30.5 103.5l51 -5q-2 -59 -21.5 -101.5t-53.5 -65.5t-79 -23z" />
    <glyph glyph-name="Ohungarumlaut" unicode="&#x150;" horiz-adv-x="772" 
d="M62 353q0 112 38.5 192.5t111 124.5t174.5 44q99 0 172 -44t112.5 -124.5t39.5 -191.5q0 -112 -40 -193t-112.5 -125.5t-171.5 -44.5q-102 0 -174 44.5t-111 125.5t-39 192zM149 353q0 -136 60 -212.5t177 -76.5q112 0 174.5 76.5t62.5 212.5q0 137 -62 212.5t-175 75.5
q-117 0 -177 -75.5t-60 -212.5zM299 765l85 172h81l-119 -172h-47zM426 765l89 172h80l-122 -172h-47z" />
    <glyph glyph-name="ohungarumlaut" unicode="&#x151;" horiz-adv-x="571" 
d="M285 -9q-72 0 -125.5 31.5t-82.5 90t-29 138.5q0 81 29 139t82.5 89.5t125.5 31.5q73 0 126.5 -31.5t83 -89.5t29.5 -139q0 -80 -29.5 -138.5t-83 -90t-126.5 -31.5zM285 57q72 0 114 49.5t42 144.5q0 96 -42.5 145.5t-113.5 49.5t-113 -49.5t-42 -145.5q0 -95 42 -144.5
t113 -49.5zM327 551l53 202h75l-83 -202h-45zM199 551l54 202h75l-84 -202h-45z" />
    <glyph glyph-name="OE" unicode="&#x152;" horiz-adv-x="1056" 
d="M559 0v705h447v-68h-366v-245h345v-69h-345v-254h366v-69h-447zM381 -9q-100 0 -171.5 44.5t-109.5 125.5t-38 192q0 112 37.5 192.5t109 124.5t172.5 44q57 0 107 -13t86 -46v-96q-29 45 -77 63.5t-111 18.5q-117 0 -177 -75.5t-60 -212.5q0 -136 60 -212.5t177 -76.5
q65 0 114 22t78 69v-95q-24 -23 -55 -38t-67 -23t-75 -8z" />
    <glyph glyph-name="oe" unicode="&#x153;" horiz-adv-x="934" 
d="M285 -9q-72 0 -125.5 31.5t-82.5 90t-29 139.5q0 80 29 138.5t82.5 89.5t125.5 31q78 0 132.5 -39.5t77.5 -114.5h-25q25 74 80 114t130 40q98 0 153.5 -63t55.5 -174v-30h-385v51h332l-18 -12q0 79 -36 123.5t-104 44.5q-73 0 -114 -52.5t-41 -140.5v-6q0 -97 45 -146
t130 -49q42 0 80.5 14t74.5 44l29 -57q-22 -22 -52.5 -37t-64 -22.5t-65.5 -7.5q-89 0 -147.5 40t-82.5 115h24q-23 -75 -77 -115t-132 -40zM286 57q72 0 114 49.5t42 144.5q0 96 -42 145.5t-114 49.5q-71 0 -113.5 -49.5t-42.5 -145.5q0 -95 42.5 -144.5t113.5 -49.5z" />
    <glyph glyph-name="Racute" unicode="&#x154;" horiz-adv-x="692" 
d="M88 0v705h288q111 0 172 -52.5t61 -146.5q0 -62 -27.5 -105.5t-77 -66.5t-115.5 -23l18 13h20q41 0 73.5 -20t51.5 -67l100 -237h-91l-96 233q-17 45 -51 58.5t-85 13.5h-158v-305h-83zM171 370h193q80 0 121.5 34.5t41.5 99.5t-41.5 99t-121.5 34h-193v-267zM315 765
l118 172h91l-147 -172h-62z" />
    <glyph glyph-name="racute" unicode="&#x155;" horiz-adv-x="363" 
d="M77 0v381q0 30 -1.5 61t-4.5 60h78l10 -122l-14 -1q10 45 35 74t59 43.5t71 14.5q15 0 26.5 -1t21.5 -5l-1 -72q-15 5 -27.5 6.5t-28.5 1.5q-44 0 -76.5 -21t-49 -54t-16.5 -70v-296h-82zM194 551l103 202h87l-132 -202h-58z" />
    <glyph glyph-name="uni0156" unicode="&#x156;" horiz-adv-x="692" 
d="M88 0v705h288q111 0 172 -52.5t61 -146.5q0 -62 -27.5 -105.5t-77 -66.5t-115.5 -23l18 13h20q41 0 73.5 -20t51.5 -67l100 -237h-91l-96 233q-17 45 -51 58.5t-85 13.5h-158v-305h-83zM171 370h193q80 0 121.5 34.5t41.5 99.5t-41.5 99t-121.5 34h-193v-267zM343 -268
l-36 26q23 24 30.5 45t7.5 45l21 -10h-70v82h99v-60q0 -37 -12.5 -69.5t-39.5 -58.5z" />
    <glyph glyph-name="uni0157" unicode="&#x157;" horiz-adv-x="363" 
d="M77 0v381q0 30 -1.5 61t-4.5 60h78l10 -122l-14 -1q10 45 35 74t59 43.5t71 14.5q15 0 26.5 -1t21.5 -5l-1 -72q-15 5 -27.5 6.5t-28.5 1.5q-44 0 -76.5 -21t-49 -54t-16.5 -70v-296h-82zM115 -268l-36 26q23 24 30.5 45t7.5 45l21 -10h-70v82h99v-60q0 -37 -12.5 -69.5
t-39.5 -58.5z" />
    <glyph glyph-name="Rcaron" unicode="&#x158;" horiz-adv-x="692" 
d="M88 0v705h288q111 0 172 -52.5t61 -146.5q0 -62 -27.5 -105.5t-77 -66.5t-115.5 -23l18 13h20q41 0 73.5 -20t51.5 -67l100 -237h-91l-96 233q-17 45 -51 58.5t-85 13.5h-158v-305h-83zM171 370h193q80 0 121.5 34.5t41.5 99.5t-41.5 99t-121.5 34h-193v-267zM308 765
l-123 172h61l100 -119l100 119h61l-123 -172h-76z" />
    <glyph glyph-name="rcaron" unicode="&#x159;" horiz-adv-x="363" 
d="M77 0v381q0 30 -1.5 61t-4.5 60h78l10 -122l-14 -1q10 45 35 74t59 43.5t71 14.5q15 0 26.5 -1t21.5 -5l-1 -72q-15 5 -27.5 6.5t-28.5 1.5q-44 0 -76.5 -21t-49 -54t-16.5 -70v-296h-82zM184 551l-109 202h56l92 -148l92 148h56l-109 -202h-78z" />
    <glyph glyph-name="Sacute" unicode="&#x15a;" horiz-adv-x="623" 
d="M318 -9q-85 0 -152 22t-117 63l30 66q35 -26 70.5 -43.5t76.5 -26t92 -8.5q89 0 132 33t43 88q0 47 -30 72t-105 40l-105 21q-97 20 -144.5 65t-47.5 122q0 63 32.5 110t91.5 73t137 26q75 0 137 -22.5t106 -65.5l-29 -64q-47 42 -98.5 60.5t-116.5 18.5
q-82 0 -129.5 -35.5t-47.5 -96.5q0 -49 30 -76.5t99 -41.5l106 -21q102 -21 150 -63t48 -118q0 -58 -31.5 -103t-89.5 -70t-138 -25zM290 765l118 172h91l-147 -172h-62z" />
    <glyph glyph-name="sacute" unicode="&#x15b;" horiz-adv-x="496" 
d="M246 -9q-60 0 -112 16.5t-86 46.5l28 57q37 -29 80.5 -43t90.5 -14q60 0 90.5 21.5t30.5 59.5q0 29 -19.5 46.5t-63.5 27.5l-93 19q-64 14 -96 47.5t-32 85.5q0 44 23 77.5t67 53t103 19.5q55 0 101.5 -16.5t77.5 -47.5l-29 -56q-30 29 -68.5 43.5t-79.5 14.5
q-59 0 -88.5 -23.5t-29.5 -61.5q0 -29 18.5 -47.5t57.5 -27.5l93 -19q68 -15 101.5 -46.5t33.5 -84.5q0 -45 -25 -78.5t-69.5 -51.5t-104.5 -18zM225 551l103 202h87l-132 -202h-58z" />
    <glyph glyph-name="Scircumflex" unicode="&#x15c;" horiz-adv-x="623" 
d="M318 -9q-85 0 -152 22t-117 63l30 66q35 -26 70.5 -43.5t76.5 -26t92 -8.5q89 0 132 33t43 88q0 47 -30 72t-105 40l-105 21q-97 20 -144.5 65t-47.5 122q0 63 32.5 110t91.5 73t137 26q75 0 137 -22.5t106 -65.5l-29 -64q-47 42 -98.5 60.5t-116.5 18.5
q-82 0 -129.5 -35.5t-47.5 -96.5q0 -49 30 -76.5t99 -41.5l106 -21q102 -21 150 -63t48 -118q0 -58 -31.5 -103t-89.5 -70t-138 -25zM160 765l123 172h76l123 -172h-61l-100 119l-100 -119h-61z" />
    <glyph glyph-name="scircumflex" unicode="&#x15d;" horiz-adv-x="496" 
d="M246 -9q-60 0 -112 16.5t-86 46.5l28 57q37 -29 80.5 -43t90.5 -14q60 0 90.5 21.5t30.5 59.5q0 29 -19.5 46.5t-63.5 27.5l-93 19q-64 14 -96 47.5t-32 85.5q0 44 23 77.5t67 53t103 19.5q55 0 101.5 -16.5t77.5 -47.5l-29 -56q-30 29 -68.5 43.5t-79.5 14.5
q-59 0 -88.5 -23.5t-29.5 -61.5q0 -29 18.5 -47.5t57.5 -27.5l93 -19q68 -15 101.5 -46.5t33.5 -84.5q0 -45 -25 -78.5t-69.5 -51.5t-104.5 -18zM106 551l109 202h78l109 -202h-56l-92 148l-92 -148h-56z" />
    <glyph glyph-name="Scedilla" unicode="&#x15e;" horiz-adv-x="623" 
d="M318 -9q-85 0 -152 22t-117 63l30 66q35 -26 70.5 -43.5t76.5 -26t92 -8.5q89 0 132 33t43 88q0 47 -30 72t-105 40l-105 21q-97 20 -144.5 65t-47.5 122q0 63 32.5 110t91.5 73t137 26q75 0 137 -22.5t106 -65.5l-29 -64q-47 42 -98.5 60.5t-116.5 18.5
q-82 0 -129.5 -35.5t-47.5 -96.5q0 -49 30 -76.5t99 -41.5l106 -21q102 -21 150 -63t48 -118q0 -58 -31.5 -103t-89.5 -70t-138 -25zM327 -192q-26 0 -49.5 5t-40.5 14l14 44q18 -8 34.5 -12t38.5 -4q27 0 43 9.5t16 27.5q0 28 -38 28q-11 0 -21.5 -1.5t-25.5 -7.5l-17 16
l15 93h51l-13 -75l-24 6q11 3 23 5t22 2q36 0 60 -18t24 -50q0 -37 -31 -59.5t-81 -22.5z" />
    <glyph glyph-name="scedilla" unicode="&#x15f;" horiz-adv-x="496" 
d="M246 -9q-60 0 -112 16.5t-86 46.5l28 57q37 -29 80.5 -43t90.5 -14q60 0 90.5 21.5t30.5 59.5q0 29 -19.5 46.5t-63.5 27.5l-93 19q-64 14 -96 47.5t-32 85.5q0 44 23 77.5t67 53t103 19.5q55 0 101.5 -16.5t77.5 -47.5l-29 -56q-30 29 -68.5 43.5t-79.5 14.5
q-59 0 -88.5 -23.5t-29.5 -61.5q0 -29 18.5 -47.5t57.5 -27.5l93 -19q68 -15 101.5 -46.5t33.5 -84.5q0 -45 -25 -78.5t-69.5 -51.5t-104.5 -18zM249 -192q-26 0 -49.5 5t-40.5 14l14 44q18 -8 34.5 -12t38.5 -4q27 0 43 9.5t16 27.5q0 28 -38 28q-11 0 -21.5 -1.5
t-25.5 -7.5l-17 16l15 93h51l-13 -75l-24 6q11 3 23 5t22 2q36 0 60 -18t24 -50q0 -37 -31 -59.5t-81 -22.5z" />
    <glyph glyph-name="Scaron" unicode="&#x160;" horiz-adv-x="623" 
d="M318 -9q-85 0 -152 22t-117 63l30 66q35 -26 70.5 -43.5t76.5 -26t92 -8.5q89 0 132 33t43 88q0 47 -30 72t-105 40l-105 21q-97 20 -144.5 65t-47.5 122q0 63 32.5 110t91.5 73t137 26q75 0 137 -22.5t106 -65.5l-29 -64q-47 42 -98.5 60.5t-116.5 18.5
q-82 0 -129.5 -35.5t-47.5 -96.5q0 -49 30 -76.5t99 -41.5l106 -21q102 -21 150 -63t48 -118q0 -58 -31.5 -103t-89.5 -70t-138 -25zM283 765l-123 172h61l100 -119l100 119h61l-123 -172h-76z" />
    <glyph glyph-name="scaron" unicode="&#x161;" horiz-adv-x="496" 
d="M246 -9q-60 0 -112 16.5t-86 46.5l28 57q37 -29 80.5 -43t90.5 -14q60 0 90.5 21.5t30.5 59.5q0 29 -19.5 46.5t-63.5 27.5l-93 19q-64 14 -96 47.5t-32 85.5q0 44 23 77.5t67 53t103 19.5q55 0 101.5 -16.5t77.5 -47.5l-29 -56q-30 29 -68.5 43.5t-79.5 14.5
q-59 0 -88.5 -23.5t-29.5 -61.5q0 -29 18.5 -47.5t57.5 -27.5l93 -19q68 -15 101.5 -46.5t33.5 -84.5q0 -45 -25 -78.5t-69.5 -51.5t-104.5 -18zM215 551l-109 202h56l92 -148l92 148h56l-109 -202h-78z" />
    <glyph glyph-name="uni0162" unicode="&#x162;" horiz-adv-x="604" 
d="M259 0v635h-249v70h580v-70h-248v-635h-83zM305 -192q-26 0 -49.5 5t-40.5 14l14 44q18 -8 34.5 -12t38.5 -4q27 0 43 9.5t16 27.5q0 28 -38 28q-11 0 -21.5 -1.5t-25.5 -7.5l-17 16l15 93h51l-13 -75l-24 6q11 3 23 5t22 2q36 0 60 -18t24 -50q0 -37 -31 -59.5
t-81 -22.5z" />
    <glyph glyph-name="uni0163" unicode="&#x163;" horiz-adv-x="350" 
d="M257 -9q-74 0 -113 42.5t-39 128.5v277h-98v63h98v137l81 23v-160h144v-63h-144v-268q0 -60 20.5 -85.5t61.5 -25.5q19 0 34 3.5t27 8.5v-68q-14 -6 -33.5 -9.5t-38.5 -3.5zM228 -192q-26 0 -49.5 5t-40.5 14l14 44q18 -8 34.5 -12t38.5 -4q27 0 43 9.5t16 27.5
q0 28 -38 28q-11 0 -21.5 -1.5t-25.5 -7.5l-17 16l15 93h51l-13 -75l-24 6q11 3 23 5t22 2q36 0 60 -18t24 -50q0 -37 -31 -59.5t-81 -22.5z" />
    <glyph glyph-name="Tcaron" unicode="&#x164;" horiz-adv-x="604" 
d="M259 0v635h-249v70h580v-70h-248v-635h-83zM264 765l-123 172h61l100 -119l100 119h61l-123 -172h-76z" />
    <glyph glyph-name="tcaron" unicode="&#x165;" horiz-adv-x="350" 
d="M257 -9q-74 0 -113 42.5t-39 128.5v277h-98v63h98v137l81 23v-160h144v-63h-144v-268q0 -60 20.5 -85.5t61.5 -25.5q19 0 34 3.5t27 8.5v-68q-14 -6 -33.5 -9.5t-38.5 -3.5zM257 541v172h65l-23 -172h-42z" />
    <glyph glyph-name="Tbar" unicode="&#x166;" horiz-adv-x="604" 
d="M259 0v635h-249v70h580v-70h-248v-635h-83zM118 326v64h367v-64h-367z" />
    <glyph glyph-name="tbar" unicode="&#x167;" horiz-adv-x="350" 
d="M257 -9q-74 0 -113 42.5t-39 128.5v277h-98v63h98v137l81 23v-160h144v-63h-144v-268q0 -60 20.5 -85.5t61.5 -25.5q19 0 34 3.5t27 8.5v-68q-14 -6 -33.5 -9.5t-38.5 -3.5zM34 248v55h275v-55h-275z" />
    <glyph glyph-name="Utilde" unicode="&#x168;" horiz-adv-x="730" 
d="M366 -9q-143 0 -212.5 73t-69.5 215v426h82v-422q0 -109 48 -164t152 -55q98 0 149 55t51 164v422h82v-426q0 -142 -71.5 -215t-210.5 -73zM203 783l-46 3q6 64 38.5 98.5t81.5 34.5q23 0 46.5 -9.5t56.5 -31.5q31 -19 47 -27t31 -8q30 0 47 20.5t24 58.5l46 -3
q-6 -64 -38 -98.5t-81 -34.5q-23 0 -47 10t-60 33q-27 18 -44 25.5t-31 7.5q-30 0 -47 -20.5t-24 -58.5z" />
    <glyph glyph-name="utilde" unicode="&#x169;" horiz-adv-x="577" 
d="M256 -9q-89 0 -134.5 49t-45.5 150v312h81v-310q0 -69 28 -101.5t87 -32.5q66 0 106 43t40 115v286h81v-502h-79v113h13q-21 -58 -67.5 -90t-109.5 -32zM155 591l-46 3q5 64 34 98.5t73 34.5q22 0 40.5 -10t42.5 -31q22 -20 35.5 -27.5t26.5 -7.5q51 0 62 79l46 -3
q-5 -64 -33.5 -98.5t-72.5 -34.5q-21 0 -40 10t-44 32q-21 19 -34.5 26.5t-27.5 7.5q-26 0 -41.5 -20.5t-20.5 -58.5z" />
    <glyph glyph-name="Umacron" unicode="&#x16a;" horiz-adv-x="730" 
d="M366 -9q-143 0 -212.5 73t-69.5 215v426h82v-422q0 -109 48 -164t152 -55q98 0 149 55t51 164v422h82v-426q0 -142 -71.5 -215t-210.5 -73zM203 814v55h326v-55h-326z" />
    <glyph glyph-name="umacron" unicode="&#x16b;" horiz-adv-x="577" 
d="M256 -9q-89 0 -134.5 49t-45.5 150v312h81v-310q0 -69 28 -101.5t87 -32.5q66 0 106 43t40 115v286h81v-502h-79v113h13q-21 -58 -67.5 -90t-109.5 -32zM141 626v55h296v-55h-296z" />
    <glyph glyph-name="Ubreve" unicode="&#x16c;" horiz-adv-x="730" 
d="M366 -9q-143 0 -212.5 73t-69.5 215v426h82v-422q0 -109 48 -164t152 -55q98 0 149 55t51 164v422h82v-426q0 -142 -71.5 -215t-210.5 -73zM366 760q-71 0 -117 45t-52 123l51 7q5 -57 36 -89t82 -32t82.5 32t35.5 89l51 -7q-6 -78 -52 -123t-117 -45z" />
    <glyph glyph-name="ubreve" unicode="&#x16d;" horiz-adv-x="577" 
d="M256 -9q-89 0 -134.5 49t-45.5 150v312h81v-310q0 -69 28 -101.5t87 -32.5q66 0 106 43t40 115v286h81v-502h-79v113h13q-21 -58 -67.5 -90t-109.5 -32zM289 550q-45 0 -79 23t-53 65.5t-22 101.5l51 5q4 -67 30.5 -103.5t72.5 -36.5t72.5 36.5t30.5 103.5l51 -5
q-2 -59 -21.5 -101.5t-53.5 -65.5t-79 -23z" />
    <glyph glyph-name="Uring" unicode="&#x16e;" horiz-adv-x="730" 
d="M366 -9q-143 0 -212.5 73t-69.5 215v426h82v-422q0 -109 48 -164t152 -55q98 0 149 55t51 164v422h82v-426q0 -142 -71.5 -215t-210.5 -73zM366 758q-33 0 -60 15.5t-43 42t-16 58.5q0 33 16 58.5t43 41t60 15.5q34 0 60.5 -15.5t42.5 -41t16 -58.5q0 -32 -16 -58.5
t-42.5 -42t-60.5 -15.5zM366 801q32 0 52 21t20 52q0 30 -20 51t-52 21q-31 0 -51.5 -21t-20.5 -51q0 -31 20.5 -52t51.5 -21z" />
    <glyph glyph-name="uring" unicode="&#x16f;" horiz-adv-x="577" 
d="M256 -9q-89 0 -134.5 49t-45.5 150v312h81v-310q0 -69 28 -101.5t87 -32.5q66 0 106 43t40 115v286h81v-502h-79v113h13q-21 -58 -67.5 -90t-109.5 -32zM289 548q-33 0 -60 15t-43 41.5t-16 58.5q0 33 16 59t43 41.5t60 15.5q34 0 60.5 -15.5t42.5 -41.5t16 -59
q0 -32 -16 -58.5t-42.5 -41.5t-60.5 -15zM289 591q32 0 52 21t20 51q0 31 -20 51.5t-52 20.5q-31 0 -51.5 -20.5t-20.5 -51.5q0 -30 20.5 -51t51.5 -21z" />
    <glyph glyph-name="Uhungarumlaut" unicode="&#x170;" horiz-adv-x="730" 
d="M366 -9q-143 0 -212.5 73t-69.5 215v426h82v-422q0 -109 48 -164t152 -55q98 0 149 55t51 164v422h82v-426q0 -142 -71.5 -215t-210.5 -73zM279 765l85 172h81l-119 -172h-47zM406 765l89 172h80l-122 -172h-47z" />
    <glyph glyph-name="uhungarumlaut" unicode="&#x171;" horiz-adv-x="577" 
d="M256 -9q-89 0 -134.5 49t-45.5 150v312h81v-310q0 -69 28 -101.5t87 -32.5q66 0 106 43t40 115v286h81v-502h-79v113h13q-21 -58 -67.5 -90t-109.5 -32zM330 552l53 202h75l-83 -202h-45zM202 552l54 202h75l-84 -202h-45z" />
    <glyph glyph-name="Uogonek" unicode="&#x172;" horiz-adv-x="730" 
d="M366 -9q-143 0 -212.5 73t-69.5 215v426h82v-422q0 -109 48 -164t152 -55q98 0 149 55t51 164v422h82v-426q0 -142 -71.5 -215t-210.5 -73zM425 -192q-48 0 -77 26t-29 71q0 40 26 75.5t70 55.5l29 -36q-16 -6 -31.5 -18.5t-25.5 -29.5t-10 -38q0 -28 17 -42t41 -14
q14 0 27 3t27 9l14 -45q-14 -8 -34 -12.5t-44 -4.5z" />
    <glyph glyph-name="uogonek" unicode="&#x173;" horiz-adv-x="577" 
d="M256 -9q-89 0 -134.5 49t-45.5 150v312h81v-310q0 -69 28 -101.5t87 -32.5q66 0 106 43t40 115v286h81v-502h-79v113h13q-21 -58 -67.5 -90t-109.5 -32zM466 -192q-48 0 -77 26t-29 71q0 40 26 75.5t70 55.5l29 -36q-16 -6 -31.5 -18.5t-25.5 -29.5t-10 -38q0 -28 17 -42
t41 -14q14 0 27 3t27 9l14 -45q-14 -8 -34 -12.5t-44 -4.5z" />
    <glyph glyph-name="Wcircumflex" unicode="&#x174;" horiz-adv-x="1112" 
d="M280 0l-246 705h87l215 -635h-35l226 635h66l214 -635h-32l221 635h82l-248 -705h-74l-208 611h21l-217 -611h-72zM395 765l123 172h76l123 -172h-61l-100 119l-100 -119h-61z" />
    <glyph glyph-name="wcircumflex" unicode="&#x175;" horiz-adv-x="869" 
d="M213 0l-186 502h86l155 -442h-26l160 442h70l157 -442h-25l156 442h82l-187 -502h-78l-162 449h40l-163 -449h-79zM287 551l109 202h78l109 -202h-56l-92 148l-92 -148h-56z" />
    <glyph glyph-name="Ycircumflex" unicode="&#x176;" horiz-adv-x="607" 
d="M262 0v329l18 -56l-292 432h96l232 -351h-21l231 351h92l-291 -432l18 56v-329h-83zM143 765l123 172h76l123 -172h-61l-100 119l-100 -119h-61z" />
    <glyph glyph-name="ycircumflex" unicode="&#x177;" horiz-adv-x="531" 
d="M59 -227l-19 67q47 11 78.5 25.5t52.5 38.5t36 60l26 59l-2 -34l-219 513h88l181 -441h-26l179 441h85l-232 -544q-20 -48 -44 -80.5t-51.5 -53t-60.5 -32.5t-72 -19zM117 551l109 202h78l109 -202h-56l-92 148l-92 -148h-56z" />
    <glyph glyph-name="Ydieresis" unicode="&#x178;" horiz-adv-x="607" 
d="M262 0v329l18 -56l-292 432h96l232 -351h-21l231 351h92l-291 -432l18 56v-329h-83zM348 806v86h86v-86h-86zM174 806v86h86v-86h-86z" />
    <glyph glyph-name="Zacute" unicode="&#x179;" horiz-adv-x="596" 
d="M43 0v61l427 605v-32h-427v71h506v-61l-428 -604v31h439v-71h-517zM271 765l118 172h91l-147 -172h-62z" />
    <glyph glyph-name="zacute" unicode="&#x17a;" horiz-adv-x="519" 
d="M50 0v54l338 406l1 -21h-339v63h414v-54l-342 -408l-1 23h354v-63h-425zM230 551l103 202h87l-132 -202h-58z" />
    <glyph glyph-name="Zdotaccent" unicode="&#x17b;" horiz-adv-x="596" 
d="M43 0v61l427 605v-32h-427v71h506v-61l-428 -604v31h439v-71h-517zM257 807v88h90v-88h-90z" />
    <glyph glyph-name="zdotaccent" unicode="&#x17c;" horiz-adv-x="519" 
d="M50 0v54l338 406l1 -21h-339v63h414v-54l-342 -408l-1 23h354v-63h-425zM213 609v88h92v-88h-92z" />
    <glyph glyph-name="Zcaron" unicode="&#x17d;" horiz-adv-x="596" 
d="M43 0v61l427 605v-32h-427v71h506v-61l-428 -604v31h439v-71h-517zM264 765l-123 172h61l100 -119l100 119h61l-123 -172h-76z" />
    <glyph glyph-name="zcaron" unicode="&#x17e;" horiz-adv-x="519" 
d="M50 0v54l338 406l1 -21h-339v63h414v-54l-342 -408l-1 23h354v-63h-425zM220 551l-109 202h56l92 -148l92 148h56l-109 -202h-78z" />
    <glyph glyph-name="uni0181" unicode="&#x181;" horiz-adv-x="809" 
d="M217 0v642h-34q-58 0 -85.5 -26.5t-27.5 -81.5v-45h-71v48q0 84 47.5 126t146.5 42h306q111 0 172 -48t61 -136q0 -65 -39.5 -109.5t-108.5 -58.5v14q79 -9 122.5 -54t43.5 -119q0 -94 -62.5 -144t-176.5 -50h-294zM297 67h206q83 0 124.5 31.5t41.5 96.5t-41 97t-124 32
h-207v-257zM297 390h190q81 0 122 32t41 92q0 62 -41 93.5t-122 31.5h-190v-249z" />
    <glyph glyph-name="uni018A" unicode="&#x18a;" horiz-adv-x="876" 
d="M217 0v642h-34q-58 0 -85.5 -26.5t-27.5 -81.5v-45h-71v48q0 84 46.5 126t140.5 42h265q175 0 269 -90t94 -262t-94 -262.5t-269 -90.5h-234zM300 71h144q144 0 214.5 70.5t70.5 211.5q0 142 -70.5 212t-214.5 70h-144v-564z" />
    <glyph glyph-name="uni018F" unicode="&#x18f;" horiz-adv-x="750" 
d="M372 -9q-110 0 -178.5 45t-100 126.5t-31.5 190.5v36h556v-68h-494l22 32q0 -95 21.5 -159.5t70.5 -97.5t132 -33q112 0 172.5 75.5t60.5 215.5q0 138 -64.5 212.5t-191.5 74.5q-48 0 -86 -8.5t-71 -26.5t-67 -47l-33 65q50 44 113.5 67t151.5 23q105 0 179.5 -43.5
t114 -124t39.5 -192.5t-38 -193.5t-109 -125.5t-169 -44z" />
    <glyph glyph-name="florin" unicode="&#x192;" 
d="M41 -189v66h47q44 0 71.5 23t40.5 82l95 450l17 -9h-139v63h148l-17 -14l16 74q16 81 62.5 124.5t126.5 43.5h48v-68h-42q-47 0 -74.5 -22t-40.5 -82l-15 -70l-12 14h139v-63h-153l18 10l-97 -455q-18 -80 -63.5 -123.5t-123.5 -43.5h-52z" />
    <glyph glyph-name="Ohorn" unicode="&#x1a0;" horiz-adv-x="772" 
d="M62 353q0 112 38.5 192.5t111 124.5t174.5 44q99 0 172 -44t112.5 -124.5t39.5 -191.5q0 -112 -40 -193t-112.5 -125.5t-171.5 -44.5q-102 0 -174 44.5t-111 125.5t-39 192zM149 353q0 -136 60 -212.5t177 -76.5q112 0 174.5 76.5t62.5 212.5q0 137 -62 212.5t-175 75.5
q-117 0 -177 -75.5t-60 -212.5zM496 655l-49 54q26 -2 45 -3t38 -1q43 0 66.5 11.5t33.5 37t10 64.5v17h72v-28q0 -45 -17.5 -79.5t-49.5 -53.5t-76 -19h-73z" />
    <glyph glyph-name="ohorn" unicode="&#x1a1;" horiz-adv-x="571" 
d="M285 -9q-72 0 -125.5 31.5t-82.5 90t-29 138.5q0 81 29 139t82.5 89.5t125.5 31.5q73 0 126.5 -31.5t83 -89.5t29.5 -139q0 -80 -29.5 -138.5t-83 -90t-126.5 -31.5zM285 57q72 0 114 49.5t42 144.5q0 96 -42.5 145.5t-113.5 49.5t-113 -49.5t-42 -145.5q0 -95 42 -144.5
t113 -49.5zM379 452l-42 28v22q42 1 66 13t34 37t10 64v16h72v-28q0 -45 -16.5 -78t-48 -52t-75.5 -22z" />
    <glyph glyph-name="Uhorn" unicode="&#x1af;" horiz-adv-x="730" 
d="M366 -9q-143 0 -212.5 73t-69.5 215v426h82v-422q0 -109 48 -164t152 -55q98 0 149 55t51 164v422h82v-426q0 -142 -71.5 -215t-210.5 -73zM632 655l-41 28v22q43 1 66.5 12.5t33.5 36.5t10 64v17h72v-28q0 -45 -16.5 -78t-48 -52t-76.5 -22z" />
    <glyph glyph-name="uhorn" unicode="&#x1b0;" horiz-adv-x="577" 
d="M256 -9q-89 0 -134.5 49t-45.5 150v312h81v-310q0 -69 28 -101.5t87 -32.5q66 0 106 43t40 115v286h81v-502h-79v113h13q-21 -58 -67.5 -90t-109.5 -32zM474 452l-42 28v22q42 1 66 13t34 37t10 64v16h72v-28q0 -45 -16.5 -78t-48 -52t-75.5 -22z" />
    <glyph glyph-name="uni01B3" unicode="&#x1b3;" horiz-adv-x="607" 
d="M262 0v365l18 -57l-292 397h96l232 -315h-21l173 243q29 42 65.5 61t82.5 19q17 0 31.5 -2t27.5 -7v-62q-10 4 -22 6t-27 2q-26 0 -48.5 -11.5t-42.5 -38.5l-208 -292l18 57v-365h-83z" />
    <glyph glyph-name="uni01B4" unicode="&#x1b4;" horiz-adv-x="570" 
d="M59 -227l-19 67q47 11 78.5 25.5t52.5 38.5t36 60l26 59l-2 -34l-219 513h88l181 -441h-26l138 339q23 57 58 84t93 27q19 0 34 -2t27 -7l-11 -63q-9 4 -19.5 5t-18.5 1q-33 0 -54.5 -17t-42.5 -66l-172 -404q-20 -48 -44 -80.5t-51.5 -53t-60.5 -32.5t-72 -19z" />
    <glyph glyph-name="uni01C4" unicode="&#x1c4;" horiz-adv-x="1327" 
d="M88 0v705h234q117 0 198 -40.5t123 -119t42 -192.5q0 -113 -42 -192t-123 -120t-198 -41h-234zM171 71h145q144 0 214 70.5t70 211.5q0 142 -70 212t-214 70h-145v-564zM775 0v61l427 605v-32h-427v71h506v-61l-428 -604v31h439v-71h-517zM996 765l-123 172h61l100 -119
l100 119h61l-123 -172h-76z" />
    <glyph glyph-name="uni01C5" unicode="&#x1c5;" horiz-adv-x="1265" 
d="M88 0v705h234q117 0 198 -40.5t123 -119t42 -192.5q0 -113 -42 -192t-123 -120t-198 -41h-234zM171 71h145q144 0 214 70.5t70 211.5q0 142 -70 212t-214 70h-145v-564zM797 0v54l338 406l1 -21h-339v63h414v-54l-342 -408l-1 23h354v-63h-425zM966 551l-109 202h56
l92 -148l92 148h56l-109 -202h-78z" />
    <glyph glyph-name="uni01C6" unicode="&#x1c6;" horiz-adv-x="1119" 
d="M269 -9q-66 0 -116 31.5t-77.5 89.5t-27.5 139q0 82 27.5 140t77.5 89t116 31q68 0 117.5 -34t66.5 -92h-12v351h81v-736h-80v120h11q-16 -60 -66 -94.5t-118 -34.5zM286 57q71 0 114 49.5t43 144.5q0 96 -43 145.5t-114 49.5t-113.5 -49.5t-42.5 -145.5
q0 -95 42.5 -144.5t113.5 -49.5zM650 0v54l338 406l1 -21h-339v63h414v-54l-342 -408l-1 23h354v-63h-425zM820 551l-109 202h56l92 -148l92 148h56l-109 -202h-78z" />
    <glyph glyph-name="uni01C7" unicode="&#x1c7;" horiz-adv-x="914" 
d="M88 0v705h83v-633h356v-72h-439zM664 -186q-16 0 -36.5 1.5t-41.5 6.5v69q19 -4 35.5 -6.5t29.5 -2.5q46 0 69 28.5t23 90.5v704h83v-705q0 -60 -17.5 -102t-53 -63t-91.5 -21z" />
    <glyph glyph-name="uni01C8" unicode="&#x1c8;" horiz-adv-x="783" 
d="M88 0v705h83v-633h356v-72h-439zM558 -220q-14 0 -35 3.5t-35 8.5v68q12 -4 28 -7.5t30 -3.5q42 0 62.5 26.5t20.5 86.5v540h81v-548q0 -86 -37.5 -130t-114.5 -44zM620 616v91h99v-91h-99z" />
    <glyph glyph-name="uni01C9" unicode="&#x1c9;" horiz-adv-x="476" 
d="M79 0v736h81v-736h-81zM251 -220q-14 0 -35 3.5t-35 8.5v68q12 -4 28 -7.5t30 -3.5q42 0 62.5 26.5t20.5 86.5v540h81v-548q0 -86 -37.5 -130t-114.5 -44zM313 616v91h99v-91h-99z" />
    <glyph glyph-name="uni01CA" unicode="&#x1ca;" horiz-adv-x="1076" 
d="M88 0v705h65l452 -600h-23v600h77v-705h-64l-452 600h22v-600h-77zM826 -186q-16 0 -36.5 1.5t-41.5 6.5v69q19 -4 35.5 -6.5t29.5 -2.5q46 0 69 28.5t23 90.5v704h83v-705q0 -60 -17.5 -102t-53 -63t-91.5 -21z" />
    <glyph glyph-name="uni01CB" unicode="&#x1cb;" horiz-adv-x="985" 
d="M88 0v705h65l452 -600h-23v600h77v-705h-64l-452 600h22v-600h-77zM760 -220q-14 0 -35 3.5t-35 8.5v68q12 -4 28 -7.5t30 -3.5q42 0 62.5 26.5t20.5 86.5v540h81v-548q0 -86 -37.5 -130t-114.5 -44zM822 616v91h99v-91h-99z" />
    <glyph glyph-name="uni01CC" unicode="&#x1cc;" horiz-adv-x="823" 
d="M79 0v386q0 28 -2.5 57.5t-5.5 58.5h78l10 -110h-12q22 58 70.5 88.5t112.5 30.5q89 0 134.5 -47.5t45.5 -149.5v-314h-81v309q0 71 -28.5 103.5t-88.5 32.5q-70 0 -111 -43t-41 -115v-287h-81zM599 -220q-14 0 -35 3.5t-35 8.5v68q12 -4 28 -7.5t30 -3.5q42 0 62.5 26.5
t20.5 86.5v540h81v-548q0 -86 -37.5 -130t-114.5 -44zM661 616v91h99v-91h-99z" />
    <glyph glyph-name="uni01CD" unicode="&#x1cd;" horiz-adv-x="735" 
d="M18 0l311 705h72l316 -705h-86l-88 201l37 -21h-431l40 21l-86 -201h-85zM364 610l-162 -380l-24 18h372l-18 -18l-166 380h-2zM328 765l-123 172h61l100 -119l100 119h61l-123 -172h-76z" />
    <glyph glyph-name="uni01CE" unicode="&#x1ce;" 
d="M270 -9q-67 0 -117 31.5t-77.5 89.5t-27.5 139q0 82 27.5 140t77.5 89t117 31q68 0 117.5 -34.5t65.5 -93.5h-12l11 119h78q-3 -29 -5.5 -58.5t-2.5 -57.5v-386h-81v118h11q-16 -59 -66 -93t-116 -34zM286 57q72 0 114 49.5t42 144.5q0 96 -42 145.5t-114 49.5
q-71 0 -113.5 -49.5t-42.5 -145.5q0 -95 42.5 -144.5t113.5 -49.5zM255 551l-109 202h56l92 -148l92 148h56l-109 -202h-78z" />
    <glyph glyph-name="uni01D4" unicode="&#x1d4;" horiz-adv-x="577" 
d="M256 -9q-89 0 -134.5 49t-45.5 150v312h81v-310q0 -69 28 -101.5t87 -32.5q66 0 106 43t40 115v286h81v-502h-79v113h13q-21 -58 -67.5 -90t-109.5 -32zM250 552l-109 202h56l92 -148l92 148h56l-109 -202h-78z" />
    <glyph glyph-name="uni01E5" unicode="&#x1e5;" horiz-adv-x="604" 
d="M299 -223q-65 0 -119.5 16t-98.5 49l23 62q31 -23 61 -37t62.5 -20.5t68.5 -6.5q116 0 142 93l8 -10h-132v46h142l-12 -13q1 8 1.5 15.5t0.5 16.5v161h10q-16 -59 -66 -92.5t-117 -33.5q-69 0 -119.5 29.5t-78 84.5t-27.5 130t27.5 130t78 84.5t119.5 29.5
q67 0 117 -33.5t66 -93.5l-15 -1l11 119h78q-3 -29 -5.5 -58.5t-2.5 -57.5l3 -383q0 -11 -0.5 -22t-2.5 -22l-9 10h82v-46h-88l12 10q-16 -77 -71.5 -116.5t-148.5 -39.5zM288 88q72 0 114.5 47t42.5 132t-42.5 132t-114.5 47q-73 0 -115.5 -47t-42.5 -132
q0 -86 42.5 -132.5t115.5 -46.5z" />
    <glyph glyph-name="Gcaron" unicode="&#x1e6;" horiz-adv-x="731" 
d="M412 -9q-116 0 -194 43t-117 124t-39 194q0 112 41 193t118 125t186 44q77 0 133.5 -22.5t101.5 -66.5l-31 -65q-33 29 -63.5 46t-63.5 25.5t-77 8.5q-125 0 -191.5 -75.5t-66.5 -213.5q0 -139 64.5 -213t200.5 -74q50 0 95.5 9.5t88.5 27.5l-18 -45v248h-180v65h251
v-327q-43 -23 -108.5 -37t-130.5 -14zM362 765l-123 172h61l100 -119l100 119h61l-123 -172h-76z" />
    <glyph glyph-name="gcaron" unicode="&#x1e7;" horiz-adv-x="603" 
d="M300 -223q-65 0 -120 16t-99 49l24 61q31 -22 61 -35t62 -19.5t68 -6.5q74 0 112 39t38 111v147h10q-16 -59 -66 -93.5t-117 -34.5q-69 0 -119.5 30.5t-78 87t-27.5 133.5q0 76 27.5 132t78 86.5t119.5 30.5q68 0 117.5 -34t65.5 -94l-10 10l9 109h79q-4 -29 -6 -58.5
t-2 -57.5v-383q0 -112 -57.5 -169t-168.5 -57zM288 77q73 0 115 48.5t42 136.5t-42 136t-115 48q-72 0 -115 -48t-43 -136t43 -136.5t115 -48.5zM266 551l-109 202h56l92 -148l92 148h56l-109 -202h-78z" />
    <glyph glyph-name="uni01E9" unicode="&#x1e9;" horiz-adv-x="515" 
d="M79 0v736h81v-457h2l233 223h102l-275 -262l2 41l299 -281h-105l-256 236h-2v-236h-81zM225 773l-123 172h61l100 -119l100 119h61l-123 -172h-76z" />
    <glyph glyph-name="uni01EA" unicode="&#x1ea;" horiz-adv-x="772" 
d="M62 353q0 112 38.5 192.5t111 124.5t174.5 44q99 0 172 -44t112.5 -124.5t39.5 -191.5q0 -112 -40 -193t-112.5 -125.5t-171.5 -44.5q-102 0 -174 44.5t-111 125.5t-39 192zM149 353q0 -136 60 -212.5t177 -76.5q112 0 174.5 76.5t62.5 212.5q0 137 -62 212.5t-175 75.5
q-117 0 -177 -75.5t-60 -212.5zM428 -192q-48 0 -77 26t-29 71q0 40 26 75.5t70 55.5l29 -36q-16 -6 -31.5 -18.5t-25.5 -29.5t-10 -38q0 -28 17 -42t41 -14q14 0 27 3t27 9l14 -45q-14 -8 -34 -12.5t-44 -4.5z" />
    <glyph glyph-name="uni01EB" unicode="&#x1eb;" horiz-adv-x="571" 
d="M285 -9q-72 0 -125.5 31.5t-82.5 90t-29 138.5q0 81 29 139t82.5 89.5t125.5 31.5q73 0 126.5 -31.5t83 -89.5t29.5 -139q0 -80 -29.5 -138.5t-83 -90t-126.5 -31.5zM285 57q72 0 114 49.5t42 144.5q0 96 -42.5 145.5t-113.5 49.5t-113 -49.5t-42 -145.5q0 -95 42 -144.5
t113 -49.5zM323 -192q-48 0 -77 26t-29 71q0 40 26 75.5t70 55.5l29 -36q-16 -6 -31.5 -18.5t-25.5 -29.5t-10 -38q0 -28 17 -42t41 -14q14 0 27 3t27 9l14 -45q-14 -8 -34 -12.5t-44 -4.5z" />
    <glyph glyph-name="Aringacute" unicode="&#x1fa;" horiz-adv-x="735" 
d="M18 0l311 705h72l316 -705h-86l-88 201l37 -21h-431l40 21l-86 -201h-85zM364 610l-162 -380l-24 18h372l-18 -18l-166 380h-2zM366 758q-32 0 -58.5 15t-42 41t-15.5 57q0 33 15.5 58t42 40.5t58.5 15.5q19 0 35.5 -5t30.5 -15l71 66h79l-117 -100q17 -26 17 -60
q0 -31 -15.5 -57t-41.5 -41t-59 -15zM366 799q32 0 52 21t20 51q0 31 -20 51.5t-52 20.5q-31 0 -51.5 -20.5t-20.5 -51.5q0 -30 20.5 -51t51.5 -21z" />
    <glyph glyph-name="aringacute" unicode="&#x1fb;" 
d="M270 -9q-67 0 -117 31.5t-77.5 89.5t-27.5 139q0 82 27.5 140t77.5 89t117 31q68 0 117.5 -34.5t65.5 -93.5h-12l11 119h78q-3 -29 -5.5 -58.5t-2.5 -57.5v-386h-81v118h11q-16 -59 -66 -93t-116 -34zM286 57q72 0 114 49.5t42 144.5q0 96 -42 145.5t-114 49.5
q-71 0 -113.5 -49.5t-42.5 -145.5q0 -95 42.5 -144.5t113.5 -49.5zM294 544q-32 0 -58.5 15.5t-42 41t-15.5 56.5q0 32 15.5 58t42 41t58.5 15q19 0 35.5 -5t30.5 -15l71 66h79l-117 -99q17 -27 17 -61q0 -31 -15.5 -56.5t-41.5 -41t-59 -15.5zM294 586q32 0 52 20.5
t20 50.5q0 32 -20 52t-52 20q-31 0 -51.5 -20t-20.5 -52q0 -30 20.5 -50.5t51.5 -20.5z" />
    <glyph glyph-name="AEacute" unicode="&#x1fc;" horiz-adv-x="1006" 
d="M-2 0l431 705h527v-68h-399l21 22l26 -289l-17 22h347v-69h-340l13 10l27 -288l-12 24h334v-69h-396l-18 196l26 -16h-384l28 22l-122 -202h-92zM471 636l-243 -407l-10 20h331l-9 -22l-37 409h-32zM485 765l118 172h91l-147 -172h-62z" />
    <glyph glyph-name="aeacute" unicode="&#x1fd;" horiz-adv-x="882" 
d="M240 -9q-53 0 -94 20.5t-64 55.5t-23 78q0 58 27 91.5t90.5 47.5t174.5 14h51v-51h-50q-84 0 -131 -9t-66 -30t-19 -59q0 -43 30.5 -70t83.5 -27q42 0 74 19.5t50.5 54t18.5 80.5v120q0 64 -28.5 92t-87.5 28q-46 0 -86.5 -12t-82.5 -40l-28 60q39 27 91.5 42t106.5 15
q77 0 120.5 -31.5t57.5 -93.5h-25q30 61 79.5 93t117.5 32q97 0 153 -63t56 -174v-27h-377v51h323l-17 -15q0 79 -36 123.5t-104 44.5q-71 0 -112.5 -47t-41.5 -136v-8q0 -97 43.5 -150t127.5 -53q43 0 82.5 14t75.5 44l29 -57q-34 -32 -85 -49.5t-104 -17.5
q-89 0 -146.5 40.5t-79.5 116.5h21q-15 -73 -67 -115t-129 -42zM406 551l103 202h87l-132 -202h-58z" />
    <glyph glyph-name="Oslashacute" unicode="&#x1fe;" horiz-adv-x="772" 
d="M62 353q0 112 38.5 192.5t111 124.5t174.5 44q99 0 172 -44t112.5 -124.5t39.5 -191.5q0 -112 -40 -193t-112.5 -125.5t-171.5 -44.5q-102 0 -174 44.5t-111 125.5t-39 192zM149 353q0 -136 60 -212.5t177 -76.5q112 0 174.5 76.5t62.5 212.5q0 137 -62 212.5t-175 75.5
q-117 0 -177 -75.5t-60 -212.5zM247 46l-54 -93l-56 33l54 93l26 37l296 507l17 37l54 92l56 -33l-54 -93l-26 -36l-296 -508zM355 765l118 172h91l-147 -172h-62z" />
    <glyph glyph-name="oslashacute" unicode="&#x1ff;" horiz-adv-x="571" 
d="M285 -9q-72 0 -125.5 31.5t-82.5 90t-29 138.5q0 81 29 139t82.5 89.5t125.5 31.5q73 0 126.5 -31.5t83 -89.5t29.5 -139q0 -80 -29.5 -138.5t-83 -90t-126.5 -31.5zM285 57q75 0 118 50.5t43 144.5q0 93 -43 143.5t-118 50.5t-117.5 -50.5t-42.5 -143.5
q0 -94 42.5 -144.5t117.5 -50.5zM147 -39l-43 27l322 554l44 -27zM257 551l103 202h87l-132 -202h-58z" />
    <glyph glyph-name="uni0200" unicode="&#x200;" horiz-adv-x="735" 
d="M18 0l311 705h72l316 -705h-86l-88 201l37 -21h-431l40 21l-86 -201h-85zM364 610l-162 -380l-24 18h372l-18 -18l-166 380h-2zM406 765l-119 172h81l85 -172h-47zM279 765l-122 172h80l89 -172h-47z" />
    <glyph glyph-name="uni0201" unicode="&#x201;" 
d="M270 -9q-67 0 -117 31.5t-77.5 89.5t-27.5 139q0 82 27.5 140t77.5 89t117 31q68 0 117.5 -34.5t65.5 -93.5h-12l11 119h78q-3 -29 -5.5 -58.5t-2.5 -57.5v-386h-81v118h11q-16 -59 -66 -93t-116 -34zM286 57q72 0 114 49.5t42 144.5q0 96 -42 145.5t-114 49.5
q-71 0 -113.5 -49.5t-42.5 -145.5q0 -95 42.5 -144.5t113.5 -49.5zM336 551l-84 202h75l54 -202h-45zM208 551l-83 202h75l53 -202h-45z" />
    <glyph glyph-name="uni0202" unicode="&#x202;" horiz-adv-x="735" 
d="M18 0l311 705h72l316 -705h-86l-88 201l37 -21h-431l40 21l-86 -201h-85zM364 610l-162 -380l-24 18h372l-18 -18l-166 380h-2zM248 760l-51 6q6 79 52 124t117 45t117 -45t52 -124l-51 -6q-4 58 -35.5 89.5t-82.5 31.5t-82 -31.5t-36 -89.5z" />
    <glyph glyph-name="uni0203" unicode="&#x203;" 
d="M270 -9q-67 0 -117 31.5t-77.5 89.5t-27.5 139q0 82 27.5 140t77.5 89t117 31q68 0 117.5 -34.5t65.5 -93.5h-12l11 119h78q-3 -29 -5.5 -58.5t-2.5 -57.5v-386h-81v118h11q-16 -59 -66 -93t-116 -34zM286 57q72 0 114 49.5t42 144.5q0 96 -42 145.5t-114 49.5
q-71 0 -113.5 -49.5t-42.5 -145.5q0 -95 42.5 -144.5t113.5 -49.5zM191 544l-51 5q3 59 22 101.5t53 65.5t79 23t79 -23t53.5 -65.5t21.5 -101.5l-51 -5q-4 67 -30.5 103.5t-72.5 36.5t-72.5 -36.5t-30.5 -103.5z" />
    <glyph glyph-name="uni0204" unicode="&#x204;" horiz-adv-x="588" 
d="M88 0v705h450v-68h-369v-245h347v-69h-347v-254h369v-69h-450zM368 765l-119 172h81l85 -172h-47zM241 765l-122 172h80l89 -172h-47z" />
    <glyph glyph-name="uni0205" unicode="&#x205;" horiz-adv-x="544" 
d="M302 -9q-118 0 -186 68.5t-68 190.5q0 79 30 137.5t84 91t124 32.5q69 0 116 -29t72 -82.5t25 -126.5v-30h-389v51h336l-17 -13q0 80 -36 125t-107 45q-75 0 -117 -52.5t-42 -141.5v-9q0 -94 46.5 -142.5t130.5 -48.5q45 0 84.5 13.5t75.5 44.5l28 -57
q-33 -32 -83.5 -49.5t-106.5 -17.5zM328 551l-84 202h75l54 -202h-45zM200 551l-83 202h75l53 -202h-45z" />
    <glyph glyph-name="uni0206" unicode="&#x206;" horiz-adv-x="588" 
d="M88 0v705h450v-68h-369v-245h347v-69h-347v-254h369v-69h-450zM210 760l-51 6q6 79 52 124t117 45t117 -45t52 -124l-51 -6q-4 58 -35.5 89.5t-82.5 31.5t-82 -31.5t-36 -89.5z" />
    <glyph glyph-name="uni0207" unicode="&#x207;" horiz-adv-x="544" 
d="M302 -9q-118 0 -186 68.5t-68 190.5q0 79 30 137.5t84 91t124 32.5q69 0 116 -29t72 -82.5t25 -126.5v-30h-389v51h336l-17 -13q0 80 -36 125t-107 45q-75 0 -117 -52.5t-42 -141.5v-9q0 -94 46.5 -142.5t130.5 -48.5q45 0 84.5 13.5t75.5 44.5l28 -57
q-33 -32 -83.5 -49.5t-106.5 -17.5zM183 544l-51 5q3 59 22 101.5t53 65.5t79 23t79 -23t53.5 -65.5t21.5 -101.5l-51 -5q-4 67 -30.5 103.5t-72.5 36.5t-72.5 -36.5t-30.5 -103.5z" />
    <glyph glyph-name="uni0208" unicode="&#x208;" horiz-adv-x="259" 
d="M88 0v705h83v-705h-83zM169 765l-119 172h81l85 -172h-47zM42 765l-122 172h80l89 -172h-47z" />
    <glyph glyph-name="uni0209" unicode="&#x209;" horiz-adv-x="238" 
d="M79 0v502h81v-502h-81zM161 551l-84 202h75l54 -202h-45zM33 551l-83 202h75l53 -202h-45z" />
    <glyph glyph-name="uni020A" unicode="&#x20a;" horiz-adv-x="259" 
d="M88 0v705h83v-705h-83zM11 760l-51 6q6 79 52 124t117 45t117 -45t52 -124l-51 -6q-4 58 -35.5 89.5t-82.5 31.5t-82 -31.5t-36 -89.5z" />
    <glyph glyph-name="uni020B" unicode="&#x20b;" horiz-adv-x="238" 
d="M79 0v502h81v-502h-81zM16 544l-51 5q3 59 22 101.5t53 65.5t79 23t79 -23t53.5 -65.5t21.5 -101.5l-51 -5q-4 67 -30.5 103.5t-72.5 36.5t-72.5 -36.5t-30.5 -103.5z" />
    <glyph glyph-name="uni020C" unicode="&#x20c;" horiz-adv-x="772" 
d="M62 353q0 112 38.5 192.5t111 124.5t174.5 44q99 0 172 -44t112.5 -124.5t39.5 -191.5q0 -112 -40 -193t-112.5 -125.5t-171.5 -44.5q-102 0 -174 44.5t-111 125.5t-39 192zM149 353q0 -136 60 -212.5t177 -76.5q112 0 174.5 76.5t62.5 212.5q0 137 -62 212.5t-175 75.5
q-117 0 -177 -75.5t-60 -212.5zM426 765l-119 172h81l85 -172h-47zM299 765l-122 172h80l89 -172h-47z" />
    <glyph glyph-name="uni020D" unicode="&#x20d;" horiz-adv-x="571" 
d="M285 -9q-72 0 -125.5 31.5t-82.5 90t-29 138.5q0 81 29 139t82.5 89.5t125.5 31.5q73 0 126.5 -31.5t83 -89.5t29.5 -139q0 -80 -29.5 -138.5t-83 -90t-126.5 -31.5zM285 57q72 0 114 49.5t42 144.5q0 96 -42.5 145.5t-113.5 49.5t-113 -49.5t-42 -145.5q0 -95 42 -144.5
t113 -49.5zM328 551l-84 202h75l54 -202h-45zM200 551l-83 202h75l53 -202h-45z" />
    <glyph glyph-name="uni020E" unicode="&#x20e;" horiz-adv-x="772" 
d="M62 353q0 112 38.5 192.5t111 124.5t174.5 44q99 0 172 -44t112.5 -124.5t39.5 -191.5q0 -112 -40 -193t-112.5 -125.5t-171.5 -44.5q-102 0 -174 44.5t-111 125.5t-39 192zM149 353q0 -136 60 -212.5t177 -76.5q112 0 174.5 76.5t62.5 212.5q0 137 -62 212.5t-175 75.5
q-117 0 -177 -75.5t-60 -212.5zM268 760l-51 6q6 79 52 124t117 45t117 -45t52 -124l-51 -6q-4 58 -35.5 89.5t-82.5 31.5t-82 -31.5t-36 -89.5z" />
    <glyph glyph-name="uni020F" unicode="&#x20f;" horiz-adv-x="571" 
d="M285 -9q-72 0 -125.5 31.5t-82.5 90t-29 138.5q0 81 29 139t82.5 89.5t125.5 31.5q73 0 126.5 -31.5t83 -89.5t29.5 -139q0 -80 -29.5 -138.5t-83 -90t-126.5 -31.5zM285 57q72 0 114 49.5t42 144.5q0 96 -42.5 145.5t-113.5 49.5t-113 -49.5t-42 -145.5q0 -95 42 -144.5
t113 -49.5zM183 544l-51 5q3 59 22 101.5t53 65.5t79 23t79 -23t53.5 -65.5t21.5 -101.5l-51 -5q-4 67 -30.5 103.5t-72.5 36.5t-72.5 -36.5t-30.5 -103.5z" />
    <glyph glyph-name="uni0210" unicode="&#x210;" horiz-adv-x="692" 
d="M88 0v705h288q111 0 172 -52.5t61 -146.5q0 -62 -27.5 -105.5t-77 -66.5t-115.5 -23l18 13h20q41 0 73.5 -20t51.5 -67l100 -237h-91l-96 233q-17 45 -51 58.5t-85 13.5h-158v-305h-83zM171 370h193q80 0 121.5 34.5t41.5 99.5t-41.5 99t-121.5 34h-193v-267zM386 765
l-119 172h81l85 -172h-47zM259 765l-122 172h80l89 -172h-47z" />
    <glyph glyph-name="uni0211" unicode="&#x211;" horiz-adv-x="363" 
d="M77 0v381q0 30 -1.5 61t-4.5 60h78l10 -122l-14 -1q10 45 35 74t59 43.5t71 14.5q15 0 26.5 -1t21.5 -5l-1 -72q-15 5 -27.5 6.5t-28.5 1.5q-44 0 -76.5 -21t-49 -54t-16.5 -70v-296h-82zM265 551l-84 202h75l54 -202h-45zM137 551l-83 202h75l53 -202h-45z" />
    <glyph glyph-name="uni0212" unicode="&#x212;" horiz-adv-x="692" 
d="M88 0v705h288q111 0 172 -52.5t61 -146.5q0 -62 -27.5 -105.5t-77 -66.5t-115.5 -23l18 13h20q41 0 73.5 -20t51.5 -67l100 -237h-91l-96 233q-17 45 -51 58.5t-85 13.5h-158v-305h-83zM171 370h193q80 0 121.5 34.5t41.5 99.5t-41.5 99t-121.5 34h-193v-267zM228 760
l-51 6q6 79 52 124t117 45t117 -45t52 -124l-51 -6q-4 58 -35.5 89.5t-82.5 31.5t-82 -31.5t-36 -89.5z" />
    <glyph glyph-name="uni0213" unicode="&#x213;" horiz-adv-x="363" 
d="M77 0v381q0 30 -1.5 61t-4.5 60h78l10 -122l-14 -1q10 45 35 74t59 43.5t71 14.5q15 0 26.5 -1t21.5 -5l-1 -72q-15 5 -27.5 6.5t-28.5 1.5q-44 0 -76.5 -21t-49 -54t-16.5 -70v-296h-82zM120 544l-51 5q3 59 22 101.5t53 65.5t79 23t79 -23t53.5 -65.5t21.5 -101.5
l-51 -5q-4 67 -30.5 103.5t-72.5 36.5t-72.5 -36.5t-30.5 -103.5z" />
    <glyph glyph-name="uni0214" unicode="&#x214;" horiz-adv-x="730" 
d="M366 -9q-143 0 -212.5 73t-69.5 215v426h82v-422q0 -109 48 -164t152 -55q98 0 149 55t51 164v422h82v-426q0 -142 -71.5 -215t-210.5 -73zM406 765l-119 172h81l85 -172h-47zM279 765l-122 172h80l89 -172h-47z" />
    <glyph glyph-name="uni0215" unicode="&#x215;" horiz-adv-x="577" 
d="M256 -9q-89 0 -134.5 49t-45.5 150v312h81v-310q0 -69 28 -101.5t87 -32.5q66 0 106 43t40 115v286h81v-502h-79v113h13q-21 -58 -67.5 -90t-109.5 -32zM331 552l-84 202h75l54 -202h-45zM203 552l-83 202h75l53 -202h-45z" />
    <glyph glyph-name="uni0216" unicode="&#x216;" horiz-adv-x="730" 
d="M366 -9q-143 0 -212.5 73t-69.5 215v426h82v-422q0 -109 48 -164t152 -55q98 0 149 55t51 164v422h82v-426q0 -142 -71.5 -215t-210.5 -73zM248 760l-51 6q6 79 52 124t117 45t117 -45t52 -124l-51 -6q-4 58 -35.5 89.5t-82.5 31.5t-82 -31.5t-36 -89.5z" />
    <glyph glyph-name="uni0217" unicode="&#x217;" horiz-adv-x="577" 
d="M256 -9q-89 0 -134.5 49t-45.5 150v312h81v-310q0 -69 28 -101.5t87 -32.5q66 0 106 43t40 115v286h81v-502h-79v113h13q-21 -58 -67.5 -90t-109.5 -32zM186 545l-51 5q3 59 22 101.5t53 65.5t79 23t79 -23t53.5 -65.5t21.5 -101.5l-51 -5q-4 67 -30.5 103.5t-72.5 36.5
t-72.5 -36.5t-30.5 -103.5z" />
    <glyph glyph-name="uni0218" unicode="&#x218;" horiz-adv-x="623" 
d="M318 -9q-85 0 -152 22t-117 63l30 66q35 -26 70.5 -43.5t76.5 -26t92 -8.5q89 0 132 33t43 88q0 47 -30 72t-105 40l-105 21q-97 20 -144.5 65t-47.5 122q0 63 32.5 110t91.5 73t137 26q75 0 137 -22.5t106 -65.5l-29 -64q-47 42 -98.5 60.5t-116.5 18.5
q-82 0 -129.5 -35.5t-47.5 -96.5q0 -49 30 -76.5t99 -41.5l106 -21q102 -21 150 -63t48 -118q0 -58 -31.5 -103t-89.5 -70t-138 -25zM321 -268l-36 26q23 24 30.5 45t7.5 45l21 -10h-70v82h99v-60q0 -37 -12.5 -69.5t-39.5 -58.5z" />
    <glyph glyph-name="uni0219" unicode="&#x219;" horiz-adv-x="496" 
d="M246 -9q-60 0 -112 16.5t-86 46.5l28 57q37 -29 80.5 -43t90.5 -14q60 0 90.5 21.5t30.5 59.5q0 29 -19.5 46.5t-63.5 27.5l-93 19q-64 14 -96 47.5t-32 85.5q0 44 23 77.5t67 53t103 19.5q55 0 101.5 -16.5t77.5 -47.5l-29 -56q-30 29 -68.5 43.5t-79.5 14.5
q-59 0 -88.5 -23.5t-29.5 -61.5q0 -29 18.5 -47.5t57.5 -27.5l93 -19q68 -15 101.5 -46.5t33.5 -84.5q0 -45 -25 -78.5t-69.5 -51.5t-104.5 -18zM243 -268l-36 26q23 24 30.5 45t7.5 45l21 -10h-70v82h99v-60q0 -37 -12.5 -69.5t-39.5 -58.5z" />
    <glyph glyph-name="uni021A" unicode="&#x21a;" horiz-adv-x="604" 
d="M259 0v635h-249v70h580v-70h-248v-635h-83zM299 -268l-36 26q23 24 30.5 45t7.5 45l21 -10h-70v82h99v-60q0 -37 -12.5 -69.5t-39.5 -58.5z" />
    <glyph glyph-name="uni021B" unicode="&#x21b;" horiz-adv-x="350" 
d="M257 -9q-74 0 -113 42.5t-39 128.5v277h-98v63h98v137l81 23v-160h144v-63h-144v-268q0 -60 20.5 -85.5t61.5 -25.5q19 0 34 3.5t27 8.5v-68q-14 -6 -33.5 -9.5t-38.5 -3.5zM222 -268l-36 26q23 24 30.5 45t7.5 45l21 -10h-70v82h99v-60q0 -37 -12.5 -69.5t-39.5 -58.5z
" />
    <glyph glyph-name="uni021F" unicode="&#x21f;" horiz-adv-x="586" 
d="M79 0v736h81v-345h-13q21 59 70.5 89.5t114.5 30.5q90 0 134 -48.5t44 -146.5v-316h-81v311q0 70 -27.5 102t-88.5 32q-70 0 -111.5 -43t-41.5 -113v-289h-81zM259 773l-123 172h61l100 -119l100 119h61l-123 -172h-76z" />
    <glyph glyph-name="uni0226" unicode="&#x226;" horiz-adv-x="735" 
d="M18 0l311 705h72l316 -705h-86l-88 201l37 -21h-431l40 21l-86 -201h-85zM364 610l-162 -380l-24 18h372l-18 -18l-166 380h-2zM321 807v88h90v-88h-90z" />
    <glyph glyph-name="uni0227" unicode="&#x227;" 
d="M270 -9q-67 0 -117 31.5t-77.5 89.5t-27.5 139q0 82 27.5 140t77.5 89t117 31q68 0 117.5 -34.5t65.5 -93.5h-12l11 119h78q-3 -29 -5.5 -58.5t-2.5 -57.5v-386h-81v118h11q-16 -59 -66 -93t-116 -34zM286 57q72 0 114 49.5t42 144.5q0 96 -42 145.5t-114 49.5
q-71 0 -113.5 -49.5t-42.5 -145.5q0 -95 42.5 -144.5t113.5 -49.5zM248 609v88h92v-88h-92z" />
    <glyph glyph-name="uni0228" unicode="&#x228;" horiz-adv-x="588" 
d="M88 0v705h450v-68h-369v-245h347v-69h-347v-254h369v-69h-450zM331 -192q-26 0 -49.5 5t-40.5 14l14 44q18 -8 34.5 -12t38.5 -4q27 0 43 9.5t16 27.5q0 28 -38 28q-11 0 -21.5 -1.5t-25.5 -7.5l-17 16l15 93h51l-13 -75l-24 6q11 3 23 5t22 2q36 0 60 -18t24 -50
q0 -37 -31 -59.5t-81 -22.5z" />
    <glyph glyph-name="uni022A" unicode="&#x22a;" horiz-adv-x="772" 
d="M62 353q0 112 38.5 192.5t111 124.5t174.5 44q99 0 172 -44t112.5 -124.5t39.5 -191.5q0 -112 -40 -193t-112.5 -125.5t-171.5 -44.5q-102 0 -174 44.5t-111 125.5t-39 192zM149 353q0 -136 60 -212.5t177 -76.5q112 0 174.5 76.5t62.5 212.5q0 137 -62 212.5t-175 75.5
q-117 0 -177 -75.5t-60 -212.5zM238 926v55h296v-55h-296zM256 798v72h86v-72h-86zM430 798v72h86v-72h-86z" />
    <glyph glyph-name="uni022B" unicode="&#x22b;" horiz-adv-x="571" 
d="M285 -9q-72 0 -125.5 31.5t-82.5 90t-29 138.5q0 81 29 139t82.5 89.5t125.5 31.5q73 0 126.5 -31.5t83 -89.5t29.5 -139q0 -80 -29.5 -138.5t-83 -90t-126.5 -31.5zM285 57q72 0 114 49.5t42 144.5q0 96 -42.5 145.5t-113.5 49.5t-113 -49.5t-42 -145.5q0 -95 42 -144.5
t113 -49.5zM138 707v55h296v-55h-296zM156 579v73h86v-73h-86zM330 579v73h86v-73h-86z" />
    <glyph glyph-name="uni022C" unicode="&#x22c;" horiz-adv-x="772" 
d="M62 353q0 112 38.5 192.5t111 124.5t174.5 44q99 0 172 -44t112.5 -124.5t39.5 -191.5q0 -112 -40 -193t-112.5 -125.5t-171.5 -44.5q-102 0 -174 44.5t-111 125.5t-39 192zM149 353q0 -136 60 -212.5t177 -76.5q112 0 174.5 76.5t62.5 212.5q0 137 -62 212.5t-175 75.5
q-117 0 -177 -75.5t-60 -212.5zM238 926v55h296v-55h-296zM451 768q-18 0 -35.5 7t-39.5 22q-20 15 -31.5 19t-21.5 4q-22 0 -33.5 -13t-16.5 -41l-45 2q4 51 29.5 76.5t64.5 25.5q17 0 32.5 -6t38.5 -21q21 -15 33 -20t23 -5q23 0 34.5 12.5t15.5 41.5l45 -3
q-4 -51 -29 -76t-64 -25z" />
    <glyph glyph-name="uni022D" unicode="&#x22d;" horiz-adv-x="571" 
d="M285 -9q-72 0 -125.5 31.5t-82.5 90t-29 138.5q0 81 29 139t82.5 89.5t125.5 31.5q73 0 126.5 -31.5t83 -89.5t29.5 -139q0 -80 -29.5 -138.5t-83 -90t-126.5 -31.5zM285 57q72 0 114 49.5t42 144.5q0 96 -42.5 145.5t-113.5 49.5t-113 -49.5t-42 -145.5q0 -95 42 -144.5
t113 -49.5zM138 707v55h296v-55h-296zM173 547l-45 3q4 51 29.5 76t64.5 25q18 0 34.5 -6.5t38.5 -21.5q18 -13 30 -18.5t24 -5.5q23 0 34.5 13t15.5 41l45 -2q-4 -51 -29 -76.5t-64 -25.5q-18 0 -36 7t-39 22q-17 12 -29 17.5t-24 5.5q-22 0 -33.5 -12.5t-16.5 -41.5z" />
    <glyph glyph-name="uni0230" unicode="&#x230;" horiz-adv-x="772" 
d="M62 353q0 112 38.5 192.5t111 124.5t174.5 44q99 0 172 -44t112.5 -124.5t39.5 -191.5q0 -112 -40 -193t-112.5 -125.5t-171.5 -44.5q-102 0 -174 44.5t-111 125.5t-39 192zM149 353q0 -136 60 -212.5t177 -76.5q112 0 174.5 76.5t62.5 212.5q0 137 -62 212.5t-175 75.5
q-117 0 -177 -75.5t-60 -212.5zM238 926v55h296v-55h-296zM343 798v72h87v-72h-87z" />
    <glyph glyph-name="uni0231" unicode="&#x231;" horiz-adv-x="571" 
d="M285 -9q-72 0 -125.5 31.5t-82.5 90t-29 138.5q0 81 29 139t82.5 89.5t125.5 31.5q73 0 126.5 -31.5t83 -89.5t29.5 -139q0 -80 -29.5 -138.5t-83 -90t-126.5 -31.5zM285 57q72 0 114 49.5t42 144.5q0 96 -42.5 145.5t-113.5 49.5t-113 -49.5t-42 -145.5q0 -95 42 -144.5
t113 -49.5zM138 707v55h296v-55h-296zM243 579v73h87v-73h-87z" />
    <glyph glyph-name="uni0232" unicode="&#x232;" horiz-adv-x="607" 
d="M262 0v329l18 -56l-292 432h96l232 -351h-21l231 351h92l-291 -432l18 56v-329h-83zM141 814v55h326v-55h-326z" />
    <glyph glyph-name="uni0233" unicode="&#x233;" horiz-adv-x="531" 
d="M59 -227l-19 67q47 11 78.5 25.5t52.5 38.5t36 60l26 59l-2 -34l-219 513h88l181 -441h-26l179 441h85l-232 -544q-20 -48 -44 -80.5t-51.5 -53t-60.5 -32.5t-72 -19zM117 625v55h296v-55h-296z" />
    <glyph glyph-name="uni0237" unicode="&#x237;" horiz-adv-x="238" 
d="M14 -220q-15 0 -35.5 3.5t-34.5 8.5v68q12 -4 28 -7.5t29 -3.5q42 0 63 26.5t21 86.5v540h81v-548q0 -86 -38 -130t-114 -44z" />
    <glyph glyph-name="uni0253" unicode="&#x253;" 
d="M332 -9q-68 0 -117.5 34.5t-66.5 94.5h11v-120h-80v575q0 82 44 126t127 44q15 0 29.5 -2t27.5 -6l-10 -64q-13 4 -21 5t-19 1q-48 0 -72.5 -26.5t-24.5 -77.5v-190h-12q17 58 66.5 92t117.5 34q67 0 116.5 -31t77 -89t27.5 -140q0 -81 -27.5 -139t-77 -89.5
t-116.5 -31.5zM315 57q71 0 113.5 49.5t42.5 144.5q0 96 -42.5 145.5t-113.5 49.5t-114 -49.5t-43 -145.5q0 -95 43 -144.5t114 -49.5z" />
    <glyph glyph-name="uni0257" unicode="&#x257;" 
d="M269 -9q-67 0 -116.5 31.5t-77 89.5t-27.5 139q0 82 27.5 140t77 89t116.5 31q68 0 117.5 -34t65.5 -92h-11v191q0 54 19 91.5t57.5 57.5t94.5 20q16 0 30.5 -2t26.5 -6l-10 -64q-13 4 -21.5 5t-18.5 1q-47 0 -72 -26t-25 -78v-575h-80v120h11q-17 -60 -66 -94.5
t-118 -34.5zM286 57q71 0 113.5 49.5t42.5 144.5q0 96 -42.5 145.5t-113.5 49.5t-113.5 -49.5t-42.5 -145.5q0 -95 42.5 -144.5t113.5 -49.5z" />
    <glyph glyph-name="uni0259" unicode="&#x259;" horiz-adv-x="544" 
d="M258 -9q-100 0 -156.5 62.5t-56.5 171.5v33h390v-51h-337l17 15q0 -81 37 -125.5t106 -44.5q77 0 118.5 52t41.5 136v12q0 96 -46.5 145t-133.5 49q-42 0 -81.5 -13.5t-76.5 -45.5l-25 59q33 32 84 48.5t108 16.5q77 0 133 -30.5t86.5 -88.5t30.5 -140q0 -78 -30 -137
t-83.5 -91.5t-125.5 -32.5z" />
    <glyph glyph-name="uni02B9" unicode="&#x2b9;" horiz-adv-x="221" 
d="M84 428l-21 277h95l-19 -277h-55z" />
    <glyph glyph-name="uni02BA" unicode="&#x2ba;" horiz-adv-x="392" 
d="M84 428l-21 277h95l-19 -277h-55zM255 428l-21 277h95l-19 -277h-55z" />
    <glyph glyph-name="uni02BB" unicode="&#x2bb;" horiz-adv-x="500" 
d="M201 567v61q0 36 10.5 66.5t39.5 57.5l35 -26q-22 -23 -28 -43t-6 -40l-24 11h71v-87h-98z" />
    <glyph glyph-name="uni02BC" unicode="&#x2bc;" horiz-adv-x="323" 
d="M161 571l-36 26q22 22 28.5 42.5t6.5 39.5l23 -10h-70v86h98v-60q0 -36 -10.5 -66.5t-39.5 -57.5z" />
    <glyph glyph-name="uni02BE" unicode="&#x2be;" horiz-adv-x="500" 
d="M250 554v44q24 0 38.5 16.5t14.5 38.5q0 23 -14.5 39t-38.5 16v45q44 0 73 -29t29 -71t-29 -70.5t-73 -28.5z" />
    <glyph glyph-name="uni02BF" unicode="&#x2bf;" horiz-adv-x="500" 
d="M250 554q-43 0 -72 28.5t-29 70.5t29 71t72 29v-45q-23 0 -38 -16t-15 -39q0 -22 15 -38.5t38 -16.5v-44z" />
    <glyph glyph-name="circumflex" unicode="&#x2c6;" horiz-adv-x="500" 
d="M102 551l109 202h78l109 -202h-56l-92 148l-92 -148h-56z" />
    <glyph glyph-name="caron" unicode="&#x2c7;" horiz-adv-x="500" 
d="M211 551l-109 202h56l92 -148l92 148h56l-109 -202h-78z" />
    <glyph glyph-name="uni02C8" unicode="&#x2c8;" horiz-adv-x="500" 
d="M220 595v200h60v-200h-60z" />
    <glyph glyph-name="uni02C9" unicode="&#x2c9;" horiz-adv-x="500" 
d="M102 625v55h296v-55h-296z" />
    <glyph glyph-name="uni02CA" unicode="&#x2ca;" horiz-adv-x="500" 
d="M221 551l103 202h87l-132 -202h-58z" />
    <glyph glyph-name="uni02CB" unicode="&#x2cb;" horiz-adv-x="500" 
d="M221 551l-131 202h86l103 -202h-58z" />
    <glyph glyph-name="uni02CC" unicode="&#x2cc;" horiz-adv-x="500" 
d="M220 -270v200h60v-200h-60z" />
    <glyph glyph-name="breve" unicode="&#x2d8;" horiz-adv-x="500" 
d="M250 549q-45 0 -79 23t-53 65.5t-22 101.5l51 5q4 -67 30.5 -103.5t72.5 -36.5t72.5 36.5t30.5 103.5l51 -5q-2 -59 -21.5 -101.5t-53.5 -65.5t-79 -23z" />
    <glyph glyph-name="dotaccent" unicode="&#x2d9;" horiz-adv-x="500" 
d="M204 609v88h92v-88h-92z" />
    <glyph glyph-name="ring" unicode="&#x2da;" horiz-adv-x="500" 
d="M250 547q-33 0 -60 15t-43 41.5t-16 58.5q0 33 16 59t43 41.5t60 15.5q34 0 60.5 -15.5t42.5 -41.5t16 -59q0 -32 -16 -58.5t-42.5 -41.5t-60.5 -15zM250 590q32 0 52 21t20 51q0 31 -20 51.5t-52 20.5q-31 0 -51.5 -20.5t-20.5 -51.5q0 -30 20.5 -51t51.5 -21z" />
    <glyph glyph-name="ogonek" unicode="&#x2db;" horiz-adv-x="500" 
d="M231 -192q-48 0 -77 26t-29 71q0 40 26 75.5t70 55.5l29 -36q-16 -6 -31.5 -18.5t-25.5 -29.5t-10 -38q0 -28 17 -42t41 -14q14 0 27 3t27 9l14 -45q-14 -8 -34 -12.5t-44 -4.5z" />
    <glyph glyph-name="tilde" unicode="&#x2dc;" horiz-adv-x="500" 
d="M116 590l-46 3q5 64 34 98.5t73 34.5q22 0 40.5 -10t42.5 -31q22 -20 35.5 -27.5t26.5 -7.5q51 0 62 79l46 -3q-5 -64 -33.5 -98.5t-72.5 -34.5q-21 0 -40 10t-44 32q-21 19 -34.5 26.5t-27.5 7.5q-26 0 -41.5 -20.5t-20.5 -58.5z" />
    <glyph glyph-name="hungarumlaut" unicode="&#x2dd;" horiz-adv-x="500" 
d="M291 551l53 202h75l-83 -202h-45zM163 551l54 202h75l-84 -202h-45z" />
    <glyph glyph-name="gravecomb" unicode="&#x300;" horiz-adv-x="0" 
d="M-29 551l-132 202h87l103 -202h-58z" />
    <glyph glyph-name="acutecomb" unicode="&#x301;" horiz-adv-x="0" 
d="M-29 551l103 202h87l-132 -202h-58z" />
    <glyph glyph-name="uni0302" unicode="&#x302;" horiz-adv-x="0" 
d="M-148 551l109 202h78l109 -202h-56l-92 148l-92 -148h-56z" />
    <glyph glyph-name="tildecomb" unicode="&#x303;" horiz-adv-x="0" 
d="M-134 590l-46 3q5 64 34 98.5t73 34.5q22 0 40.5 -10t42.5 -31q22 -20 35.5 -27.5t26.5 -7.5q51 0 62 79l46 -3q-5 -64 -33.5 -98.5t-72.5 -34.5q-21 0 -40 10t-44 32q-21 19 -34.5 26.5t-27.5 7.5q-26 0 -41.5 -20.5t-20.5 -58.5z" />
    <glyph glyph-name="uni0304" unicode="&#x304;" horiz-adv-x="0" 
d="M-148 625v55h296v-55h-296z" />
    <glyph glyph-name="uni0306" unicode="&#x306;" horiz-adv-x="0" 
d="M0 549q-45 0 -79 23t-53 65.5t-22 101.5l51 5q4 -67 30.5 -103.5t72.5 -36.5t72.5 36.5t30.5 103.5l51 -5q-2 -59 -21.5 -101.5t-53.5 -65.5t-79 -23z" />
    <glyph glyph-name="uni0307" unicode="&#x307;" horiz-adv-x="0" 
d="M-46 609v88h92v-88h-92z" />
    <glyph glyph-name="uni0308" unicode="&#x308;" horiz-adv-x="0" 
d="M44 609v86h86v-86h-86zM-130 609v86h86v-86h-86z" />
    <glyph glyph-name="hookabovecomb" unicode="&#x309;" horiz-adv-x="0" 
d="M-27 551v21q0 23 9.5 38t21.5 25.5t21.5 21.5t9.5 25t-11.5 21t-34.5 7q-16 0 -30.5 -3.5t-33.5 -11.5l-13 42q18 12 41.5 17t50.5 5q46 0 71.5 -17.5t25.5 -50.5q0 -25 -11 -40t-25.5 -26t-26 -24t-11.5 -34v-16h-54z" />
    <glyph glyph-name="uni030A" unicode="&#x30a;" horiz-adv-x="0" 
d="M0 547q-33 0 -60 15t-43 41.5t-16 58.5q0 33 16 59t43 41.5t60 15.5q34 0 60.5 -15.5t42.5 -41.5t16 -59q0 -32 -16 -58.5t-42.5 -41.5t-60.5 -15zM0 590q32 0 52 21t20 51q0 31 -20 51.5t-52 20.5q-31 0 -51.5 -20.5t-20.5 -51.5q0 -30 20.5 -51t51.5 -21z" />
    <glyph glyph-name="uni030B" unicode="&#x30b;" horiz-adv-x="0" 
d="M41 551l53 202h75l-83 -202h-45zM-87 551l54 202h75l-84 -202h-45z" />
    <glyph glyph-name="uni030C" unicode="&#x30c;" horiz-adv-x="0" 
d="M-39 551l-109 202h56l92 -148l92 148h56l-109 -202h-78z" />
    <glyph glyph-name="uni030F" unicode="&#x30f;" horiz-adv-x="0" 
d="M42 551l-84 202h75l54 -202h-45zM-86 551l-83 202h75l53 -202h-45z" />
    <glyph glyph-name="uni0311" unicode="&#x311;" horiz-adv-x="0" 
d="M-103 549l-51 5q3 59 22 101.5t53 65.5t79 23t79 -23t53.5 -65.5t21.5 -101.5l-51 -5q-4 67 -30.5 103.5t-72.5 36.5t-72.5 -36.5t-30.5 -103.5z" />
    <glyph glyph-name="uni0312" unicode="&#x312;" horiz-adv-x="0" 
d="M-50 567v60q0 38 13 70t40 58l35 -25q-22 -25 -30 -46t-8 -45l-21 11h70v-83h-99z" />
    <glyph glyph-name="uni031B" unicode="&#x31b;" horiz-adv-x="0" 
d="M41 436l-42 28v22q42 1 66 13t34 37t10 64v16h72v-28q0 -45 -16.5 -78t-48 -52t-75.5 -22z" />
    <glyph glyph-name="dotbelowcomb" unicode="&#x323;" horiz-adv-x="0" 
d="M-46 -187v88h92v-88h-92z" />
    <glyph glyph-name="uni0324" unicode="&#x324;" horiz-adv-x="0" 
d="M44 -181v86h86v-86h-86zM-130 -181v86h86v-86h-86z" />
    <glyph glyph-name="uni0326" unicode="&#x326;" horiz-adv-x="0" 
d="M-3 -268l-36 26q23 24 30.5 45t7.5 45l21 -10h-70v82h99v-60q0 -37 -12.5 -69.5t-39.5 -58.5z" />
    <glyph glyph-name="uni0327" unicode="&#x327;" horiz-adv-x="0" 
d="M3 -192q-26 0 -49.5 5t-40.5 14l14 44q18 -8 34.5 -12t38.5 -4q27 0 43 9.5t16 27.5q0 28 -38 28q-11 0 -21.5 -1.5t-25.5 -7.5l-17 16l15 93h51l-13 -75l-24 6q11 3 23 5t22 2q36 0 60 -18t24 -50q0 -37 -31 -59.5t-81 -22.5z" />
    <glyph glyph-name="uni0328" unicode="&#x328;" horiz-adv-x="0" 
d="M-19 -192q-48 0 -77 26t-29 71q0 40 26 75.5t70 55.5l29 -36q-16 -6 -31.5 -18.5t-25.5 -29.5t-10 -38q0 -28 17 -42t41 -14q14 0 27 3t27 9l14 -45q-14 -8 -34 -12.5t-44 -4.5z" />
    <glyph glyph-name="uni032E" unicode="&#x32e;" horiz-adv-x="0" 
d="M0 -215q-67 0 -109 40t-45 110l51 5q4 -48 30.5 -74.5t72.5 -26.5t72.5 26.5t30.5 74.5l51 -5q-3 -70 -44.5 -110t-109.5 -40z" />
    <glyph glyph-name="uni0331" unicode="&#x331;" horiz-adv-x="0" 
d="M-148 -156v55h296v-55h-296z" />
    <glyph glyph-name="uni0335" unicode="&#x335;" horiz-adv-x="0" 
d="M-183 526v61h366v-61h-366z" />
    <glyph glyph-name="uni0337" unicode="&#x337;" horiz-adv-x="0" 
d="M-115 252l-33 57l263 154l33 -57z" />
    <glyph glyph-name="uni0338" unicode="&#x338;" horiz-adv-x="0" 
d="M184 -45l-44 27l322 554l44 -27z" />
    <glyph glyph-name="uni0394" unicode="&#x394;" horiz-adv-x="728" 
d="M34 0v50l295 655h70l295 -655v-50h-660zM363 611l-255 -577v35h512v-35l-255 577h-2z" />
    <glyph glyph-name="Sigma" unicode="&#x3a3;" horiz-adv-x="607" 
d="M51 -180v59l284 399v-30l-284 398v59h507v-70h-418v21l261 -369v-49l-261 -369v21h418v-70h-507z" />
    <glyph glyph-name="uni03A9" unicode="&#x3a9;" horiz-adv-x="786" 
d="M38 0v69h245v-21q-118 65 -174 152.5t-56 197.5q0 98 41.5 168.5t118.5 109t180 38.5q77 0 139.5 -22t107 -62.5t69 -99t24.5 -132.5q0 -110 -56 -197.5t-174 -152.5v21h245v-69h-297v67q102 68 148.5 148t46.5 175q0 120 -67 185.5t-186 65.5q-121 0 -187 -65.5
t-66 -185.5q0 -95 47 -175t148 -148v-67h-297z" />
    <glyph glyph-name="uni03BC" unicode="&#x3bc;" horiz-adv-x="577" 
d="M76 -216v718h81v-310q0 -69 28 -101.5t87 -32.5q66 0 106 43.5t40 114.5v286h81v-502h-79v113h8q-17 -58 -59 -90t-99 -32q-44 0 -77 16t-51 60h11l4 -283h-81z" />
    <glyph glyph-name="pi" unicode="&#x3c0;" horiz-adv-x="593" 
d="M34 0q24 65 40 134.5t24.5 145t9.5 159.5h-103v63h551v-63h-118v-260q0 -55 27 -84t82 -34l42 -3l-7 -65l-46 3q-47 3 -81 16t-55.5 36.5t-32 58t-10.5 80.5v252h-169q-1 -92 -9 -170t-22.5 -144t-36.5 -125h-86z" />
    <glyph glyph-name="uni0400" unicode="&#x400;" horiz-adv-x="588" 
d="M88 0v705h450v-68h-369v-245h347v-69h-347v-254h369v-69h-450zM303 765l-147 172h91l118 -172h-62z" />
    <glyph glyph-name="uni0401" unicode="&#x401;" horiz-adv-x="588" 
d="M88 0v705h450v-68h-369v-245h347v-69h-347v-254h369v-69h-450zM378 806v86h86v-86h-86zM204 806v86h86v-86h-86z" />
    <glyph glyph-name="uni0402" unicode="&#x402;" horiz-adv-x="855" 
d="M585 -189q-34 0 -65.5 6t-53.5 15l17 64q20 -9 44 -13t51 -4q67 0 102 42t35 126v95q0 113 -51.5 166.5t-157.5 53.5q-49 0 -89.5 -9.5t-74.5 -28.5v-324h-83v635h-249v70h580v-70h-248v-236q29 17 75 26.5t96 9.5q141 0 213 -71.5t72 -215.5v-99q0 -77 -25.5 -130.5
t-73 -80.5t-114.5 -27z" />
    <glyph glyph-name="uni0403" unicode="&#x403;" horiz-adv-x="556" 
d="M88 0v705h453v-70h-371v-635h-82zM252 765l118 172h91l-147 -172h-62z" />
    <glyph glyph-name="uni0404" unicode="&#x404;" horiz-adv-x="690" 
d="M397 -9q-106 0 -181 44t-114.5 125t-39.5 193t39.5 192.5t114.5 124.5t181 44q75 0 136 -23.5t105 -67.5l-31 -66q-48 43 -97 62.5t-112 19.5q-120 0 -183 -71.5t-66 -199.5l-26 25h394v-69h-395l26 19q4 -132 67 -204.5t183 -72.5q63 0 112 20t97 63l31 -67
q-44 -43 -105 -67t-136 -24z" />
    <glyph glyph-name="uni0405" unicode="&#x405;" horiz-adv-x="623" 
d="M318 -9q-85 0 -152 22t-117 63l30 66q35 -26 70.5 -43.5t76.5 -26t92 -8.5q89 0 132 33t43 88q0 47 -30 72t-105 40l-105 21q-97 20 -144.5 65t-47.5 122q0 63 32.5 110t91.5 73t137 26q75 0 137 -22.5t106 -65.5l-29 -64q-47 42 -98.5 60.5t-116.5 18.5
q-82 0 -129.5 -35.5t-47.5 -96.5q0 -49 30 -76.5t99 -41.5l106 -21q102 -21 150 -63t48 -118q0 -58 -31.5 -103t-89.5 -70t-138 -25z" />
    <glyph glyph-name="uni0406" unicode="&#x406;" horiz-adv-x="259" 
d="M88 0v705h83v-705h-83z" />
    <glyph glyph-name="uni0407" unicode="&#x407;" horiz-adv-x="259" 
d="M88 0v705h83v-705h-83zM173 806v86h86v-86h-86zM-1 806v86h86v-86h-86z" />
    <glyph glyph-name="uni0408" unicode="&#x408;" horiz-adv-x="329" 
d="M79 -186q-16 0 -36.5 1.5t-41.5 6.5v69q19 -4 35.5 -6.5t29.5 -2.5q46 0 69 28.5t23 90.5v704h83v-705q0 -60 -17.5 -102t-53 -63t-91.5 -21z" />
    <glyph glyph-name="uni0409" unicode="&#x409;" horiz-adv-x="1164" 
d="M56 -15l-39 65q42 22 75 52.5t55.5 79.5t34 124.5t11.5 186.5v212h465v-311h221q114 0 176.5 -49t62.5 -147q0 -97 -62.5 -147.5t-176.5 -50.5h-303v635h-306v-163q0 -109 -14 -189.5t-41.5 -138t-67 -96t-91.5 -63.5zM658 67h213q84 0 125 32.5t41 98.5q0 65 -41 97
t-125 32h-213v-260z" />
    <glyph glyph-name="uni040A" unicode="&#x40a;" horiz-adv-x="1183" 
d="M88 0v705h81v-312h425v312h83v-311h220q115 0 177.5 -49t62.5 -147q0 -97 -62.5 -147.5t-177.5 -50.5h-303v323h-425v-323h-81zM677 67h213q84 0 124.5 32.5t40.5 98.5q0 65 -40.5 97t-124.5 32h-213v-260z" />
    <glyph glyph-name="uni040B" unicode="&#x40b;" horiz-adv-x="863" 
d="M259 0v635h-249v70h580v-70h-248v-236q32 18 81 27t98 9q140 0 212 -71.5t72 -215.5v-148h-82v142q0 115 -52.5 168t-156.5 53q-46 0 -89.5 -8.5t-82.5 -30.5v-324h-83z" />
    <glyph glyph-name="uni040C" unicode="&#x40c;" horiz-adv-x="657" 
d="M88 0v705h81v-314h144l-25 -16l226 330h93l-239 -344l-30 26q64 -7 108 -42.5t77 -99.5l123 -245h-90l-101 207q-29 62 -68.5 88t-97.5 26h-120v-321h-81zM303 765l118 172h91l-147 -172h-62z" />
    <glyph glyph-name="uni040D" unicode="&#x40d;" horiz-adv-x="747" 
d="M88 0v705h77v-603h-23l452 603h65v-705h-77v603h22l-453 -603h-63zM344 765l-147 172h91l118 -172h-62z" />
    <glyph glyph-name="uni040E" unicode="&#x40e;" horiz-adv-x="663" 
d="M204 0l122 229l1 -32l-328 508h90l279 -434h-18l230 434h86l-375 -705h-87zM333 760q-45 0 -84.5 14.5t-67.5 43.5t-43 74l48 17q20 -50 56 -73.5t90 -23.5q55 0 90.5 21.5t62.5 74.5l46 -16q-29 -72 -81 -102t-117 -30z" />
    <glyph glyph-name="uni040F" unicode="&#x40f;" horiz-adv-x="765" 
d="M345 -157v157h-257v705h82v-635h425v635h83v-705h-258v-157h-75z" />
    <glyph glyph-name="uni0410" unicode="&#x410;" horiz-adv-x="735" 
d="M18 0l311 705h72l316 -705h-86l-88 201l37 -21h-431l40 21l-86 -201h-85zM364 610l-162 -380l-24 18h372l-18 -18l-166 380h-2z" />
    <glyph glyph-name="uni0411" unicode="&#x411;" horiz-adv-x="677" 
d="M88 0v705h474v-68h-394v-243h223q115 0 177.5 -49t62.5 -147q0 -97 -62.5 -147.5t-177.5 -50.5h-303zM168 67h216q84 0 124.5 32.5t40.5 98.5q0 65 -40.5 96.5t-124.5 31.5h-216v-259z" />
    <glyph glyph-name="uni0412" unicode="&#x412;" horiz-adv-x="680" 
d="M88 0v705h282q112 0 173 -48t61 -136q0 -66 -39.5 -110t-109.5 -58v14q78 -9 122.5 -53.5t44.5 -119.5q0 -94 -62.5 -144t-176.5 -50h-295zM169 67h206q76 0 120.5 29.5t44.5 98.5q0 70 -44.5 99.5t-120.5 29.5h-206v-257zM169 390h189q82 0 123 32t41 92q0 62 -41 93.5
t-123 31.5h-189v-249z" />
    <glyph glyph-name="uni0413" unicode="&#x413;" horiz-adv-x="556" 
d="M88 0v705h453v-70h-371v-635h-82z" />
    <glyph glyph-name="uni0414" unicode="&#x414;" horiz-adv-x="802" 
d="M17 -157v225h72q54 66 80 177.5t26 277.5v182h481v-637h103v-225h-74v157h-614v-157h-74zM174 68h419v569h-321v-120q0 -161 -24 -269.5t-74 -179.5z" />
    <glyph glyph-name="uni0415" unicode="&#x415;" horiz-adv-x="588" 
d="M88 0v705h450v-68h-369v-245h347v-69h-347v-254h369v-69h-450z" />
    <glyph glyph-name="uni0416" unicode="&#x416;" horiz-adv-x="996" 
d="M11 0l122 245q33 64 78 99.5t108 42.5l-30 -26l-239 344h93l226 -330l-23 16h112v314h81v-314h114l-25 -16l226 330h92l-238 -344l-30 26q63 -7 107.5 -42.5t76.5 -99.5l123 -245h-89l-101 207q-30 61 -69.5 87.5t-96.5 26.5h-90v-321h-81v321h-90q-59 0 -98.5 -26.5
t-68.5 -87.5l-100 -207h-90z" />
    <glyph glyph-name="uni0417" unicode="&#x417;" horiz-adv-x="653" 
d="M320 -9q-92 0 -163.5 24.5t-116.5 66.5l30 64q49 -42 108 -62.5t138 -20.5q102 0 149 34t47 100q0 65 -41.5 95.5t-125.5 30.5h-178v68h164q80 0 122 31.5t42 91.5t-44.5 94t-133.5 34q-66 0 -124 -19.5t-106 -60.5l-31 64q47 43 117.5 65.5t148.5 22.5q126 0 190.5 -52
t64.5 -140q0 -65 -39.5 -109.5t-107.5 -59.5v14q76 -9 120 -54.5t44 -119.5q0 -62 -30 -107.5t-91 -70t-153 -24.5z" />
    <glyph glyph-name="uni0418" unicode="&#x418;" horiz-adv-x="747" 
d="M88 0v705h77v-603h-23l452 603h65v-705h-77v603h22l-453 -603h-63z" />
    <glyph glyph-name="uni0419" unicode="&#x419;" horiz-adv-x="747" 
d="M88 0v705h77v-603h-23l452 603h65v-705h-77v603h22l-453 -603h-63zM375 760q-45 0 -84.5 14.5t-67.5 43.5t-43 74l48 17q20 -50 56 -73.5t90 -23.5q55 0 90.5 21.5t62.5 74.5l46 -16q-29 -72 -81 -102t-117 -30z" />
    <glyph glyph-name="uni041A" unicode="&#x41a;" horiz-adv-x="657" 
d="M88 0v705h81v-314h144l-25 -16l226 330h93l-239 -344l-30 26q64 -7 108 -42.5t77 -99.5l123 -245h-90l-101 207q-29 62 -68.5 88t-97.5 26h-120v-321h-81z" />
    <glyph glyph-name="uni041B" unicode="&#x41b;" horiz-adv-x="762" 
d="M56 -15l-39 65q42 22 75 52.5t55.5 79.5t34 124.5t11.5 186.5v212h481v-705h-82v635h-322v-163q0 -109 -14 -189.5t-41.5 -138t-67 -96t-91.5 -63.5z" />
    <glyph glyph-name="uni041C" unicode="&#x41c;" horiz-adv-x="858" 
d="M89 0v705h72l283 -639h-29l283 639h72v-705h-76v598h30l-267 -598h-55l-268 598h30v-598h-75z" />
    <glyph glyph-name="uni041D" unicode="&#x41d;" horiz-adv-x="766" 
d="M88 0v705h83v-312h425v312h82v-705h-82v322h-425v-322h-83z" />
    <glyph glyph-name="uni041E" unicode="&#x41e;" horiz-adv-x="772" 
d="M62 353q0 112 38.5 192.5t111 124.5t174.5 44q99 0 172 -44t112.5 -124.5t39.5 -191.5q0 -112 -40 -193t-112.5 -125.5t-171.5 -44.5q-102 0 -174 44.5t-111 125.5t-39 192zM149 353q0 -136 60 -212.5t177 -76.5q112 0 174.5 76.5t62.5 212.5q0 137 -62 212.5t-175 75.5
q-117 0 -177 -75.5t-60 -212.5z" />
    <glyph glyph-name="uni041F" unicode="&#x41f;" horiz-adv-x="765" 
d="M88 0v705h590v-705h-83v635h-426v-635h-81z" />
    <glyph glyph-name="uni0420" unicode="&#x420;" horiz-adv-x="651" 
d="M88 0v705h287q111 0 171 -53.5t60 -148.5q0 -93 -60 -147.5t-171 -54.5h-204v-301h-83zM171 370h196q77 0 116.5 35t39.5 98q0 64 -39.5 99t-116.5 35h-196v-267z" />
    <glyph glyph-name="uni0421" unicode="&#x421;" horiz-adv-x="684" 
d="M395 -9q-106 0 -180 44t-113.5 125t-39.5 193t39.5 192.5t113.5 124.5t180 44q75 0 134 -23t103 -67l-31 -66q-48 42 -95 61.5t-110 19.5q-121 0 -184 -75t-63 -211t63 -211.5t184 -75.5q63 0 110 19.5t95 62.5l31 -67q-44 -43 -103 -66.5t-134 -23.5z" />
    <glyph glyph-name="uni0422" unicode="&#x422;" horiz-adv-x="604" 
d="M259 0v635h-249v70h580v-70h-248v-635h-83z" />
    <glyph glyph-name="uni0423" unicode="&#x423;" horiz-adv-x="663" 
d="M204 0l122 229l1 -32l-328 508h90l279 -434h-18l230 434h86l-375 -705h-87z" />
    <glyph glyph-name="uni0424" unicode="&#x424;" horiz-adv-x="868" 
d="M393 -22v97l22 -19h-27q-102 0 -175 37t-112 104.5t-39 160.5q0 142 85.5 221.5t240.5 79.5h27l-22 -18v91h82v-91l-22 18h27q156 0 241 -79.5t85 -221.5q0 -93 -39 -160.5t-112 -104.5t-175 -37h-27l22 19v-97h-82zM393 105v506l20 -18h-37q-106 0 -167.5 -60.5
t-61.5 -174.5q0 -73 28.5 -126t80 -81.5t120.5 -28.5h37zM475 105l-20 17h37q69 0 121 28.5t80 81.5t28 126q0 114 -61.5 174.5t-167.5 60.5h-37l20 18v-506z" />
    <glyph glyph-name="uni0425" unicode="&#x425;" horiz-adv-x="652" 
d="M9 0l281 376v-31l-268 360h98l220 -301h-26l218 301h99l-269 -360v31l281 -376h-98l-235 319h32l-235 -319h-98z" />
    <glyph glyph-name="uni0426" unicode="&#x426;" horiz-adv-x="804" 
d="M706 -157v157h-618v705h81v-635h426v635h83v-635h103v-227h-75z" />
    <glyph glyph-name="uni0427" unicode="&#x427;" horiz-adv-x="692" 
d="M522 0v298q-33 -17 -82 -26.5t-99 -9.5q-138 0 -210.5 72t-72.5 215v156h82v-150q0 -114 52 -167t156 -53q47 0 91 9.5t83 29.5v331h82v-705h-82z" />
    <glyph glyph-name="uni0428" unicode="&#x428;" horiz-adv-x="1082" 
d="M88 0v705h82v-635h330v635h82v-635h331v635h81v-705h-906z" />
    <glyph glyph-name="uni0429" unicode="&#x429;" horiz-adv-x="1120" 
d="M1023 -157v157h-935v705h82v-635h330v635h82v-635h331v635h81v-635h103v-227h-74z" />
    <glyph glyph-name="uni042A" unicode="&#x42a;" horiz-adv-x="822" 
d="M233 0v635h-223v70h305v-311h221q114 0 177 -49t63 -147q0 -97 -63 -147.5t-177 -50.5h-303zM315 67h213q85 0 125.5 32.5t40.5 98.5q0 65 -40.5 97t-125.5 32h-213v-260z" />
    <glyph glyph-name="uni042B" unicode="&#x42b;" horiz-adv-x="873" 
d="M88 0v705h82v-311h190q115 0 177.5 -49t62.5 -147q0 -97 -62.5 -147.5t-177.5 -50.5h-272zM170 67h183q84 0 124.5 32.5t40.5 98.5q0 65 -40.5 97t-124.5 32h-183v-260zM703 0v705h83v-705h-83z" />
    <glyph glyph-name="uni042C" unicode="&#x42c;" horiz-adv-x="677" 
d="M88 0v705h82v-311h221q115 0 177.5 -49t62.5 -147q0 -97 -62.5 -147.5t-177.5 -50.5h-303zM170 67h214q84 0 124.5 32.5t40.5 98.5q0 65 -40.5 96.5t-124.5 31.5h-214v-259z" />
    <glyph glyph-name="uni042D" unicode="&#x42d;" horiz-adv-x="690" 
d="M293 -9q-75 0 -136 24t-105 67l31 67q48 -43 97 -63t112 -20q120 0 183.5 72.5t66.5 204.5l26 -19h-395v69h394l-26 -25q-3 128 -65.5 199.5t-181.5 71.5q-63 0 -112 -19.5t-99 -62.5l-31 66q45 44 106.5 67.5t136.5 23.5q106 0 180.5 -44t113.5 -124.5t39 -192.5
t-39 -193t-114 -125t-182 -44z" />
    <glyph glyph-name="uni042E" unicode="&#x42e;" horiz-adv-x="1041" 
d="M655 -9q-94 0 -164.5 40.5t-111 115t-47.5 175.5h-162v-322h-82v705h82v-312h163q8 99 49 171t110.5 111t162.5 39q100 0 172.5 -44t112 -124.5t39.5 -192.5q0 -111 -40 -192t-112.5 -125.5t-171.5 -44.5zM655 64q113 0 175 76t62 213t-61.5 212.5t-175.5 75.5
q-113 0 -175.5 -75.5t-62.5 -212.5q0 -136 62.5 -212.5t175.5 -76.5z" />
    <glyph glyph-name="uni042F" unicode="&#x42f;" horiz-adv-x="688" 
d="M38 0l130 230q25 44 55 64t71 20h25l-5 -13q-115 0 -179 53t-64 148q0 98 62.5 150.5t178.5 52.5h288v-705h-82v298h-127q-51 0 -81 -14.5t-54 -58.5l-126 -225h-92zM324 363h194v275h-194q-172 0 -172 -137q0 -138 172 -138z" />
    <glyph glyph-name="uni0430" unicode="&#x430;" horiz-adv-x="610" 
d="M275 -9q-67 0 -117 31.5t-77.5 89.5t-27.5 139q0 82 27.5 140t77.5 89t117 31q68 0 117.5 -34.5t65.5 -93.5h-12l11 119h78q-3 -29 -5.5 -58.5t-2.5 -57.5v-386h-81v118h11q-16 -59 -66 -93t-116 -34zM291 57q72 0 114 49.5t42 144.5q0 96 -42 145.5t-114 49.5
q-71 0 -113.5 -49.5t-42.5 -145.5q0 -95 42.5 -144.5t113.5 -49.5z" />
    <glyph glyph-name="uni0431" unicode="&#x431;" horiz-adv-x="582" 
d="M293 -9q-110 0 -175 71t-65 207v88q0 139 57 225t180 116l183 46l25 -66l-203 -50q-56 -14 -92 -48.5t-54.5 -82t-18.5 -100.5v-40h-12q12 45 39 77.5t66.5 50t87.5 17.5q65 0 114 -30.5t76.5 -87t27.5 -135.5t-29 -137t-82 -89.5t-125 -31.5zM291 56q73 0 115 48.5
t42 142.5q0 93 -42.5 141.5t-114.5 48.5t-114.5 -48t-42.5 -136q0 -98 42 -147.5t115 -49.5z" />
    <glyph glyph-name="uni0432" unicode="&#x432;" horiz-adv-x="558" 
d="M80 0v502h242q87 0 130.5 -33.5t43.5 -98.5q0 -48 -33.5 -80.5t-86.5 -38.5v12q62 -2 99 -36t37 -88q0 -65 -47.5 -102t-134.5 -37h-250zM157 55h169q53 0 81.5 22.5t28.5 64.5t-28.5 64t-81.5 22h-169v-173zM157 283h160q49 0 76 22t27 61t-27 60.5t-76 21.5h-160v-165z
" />
    <glyph glyph-name="uni0433" unicode="&#x433;" horiz-adv-x="445" 
d="M80 0v502h350v-65h-269v-437h-81z" />
    <glyph glyph-name="uni0434" unicode="&#x434;" horiz-adv-x="608" 
d="M27 -130v194h53q36 51 52 122t16 168v148h353v-438h79v-194h-70v130h-414v-130h-69zM158 63h266v376h-205v-98q0 -79 -15.5 -152.5t-45.5 -125.5z" />
    <glyph glyph-name="uni0435" unicode="&#x435;" horiz-adv-x="554" 
d="M307 -9q-118 0 -186 68.5t-68 190.5q0 79 30 137.5t84 91t124 32.5q69 0 116 -29t72 -82.5t25 -126.5v-30h-389v51h336l-17 -13q0 80 -36 125t-107 45q-75 0 -117 -52.5t-42 -141.5v-9q0 -94 46.5 -142.5t130.5 -48.5q45 0 84.5 13.5t75.5 44.5l28 -57
q-33 -32 -83.5 -49.5t-106.5 -17.5z" />
    <glyph glyph-name="uni0436" unicode="&#x436;" horiz-adv-x="808" 
d="M1 0l104 176q24 39 43 61t40.5 33t49.5 14l-20 -25l-191 243h89l167 -211h81v211h81v-211h80l166 211h90l-192 -243l-21 25q29 -3 50.5 -14t41.5 -33t43 -61l103 -176h-87l-92 156q-17 29 -32.5 44t-34.5 21t-48 6h-67v-227h-81v227h-68q-29 0 -48 -6t-34.5 -21
t-32.5 -44l-92 -156h-88z" />
    <glyph glyph-name="uni0437" unicode="&#x437;" horiz-adv-x="508" 
d="M246 -9q-64 0 -120.5 17.5t-92.5 48.5l28 57q37 -30 83.5 -45.5t101.5 -15.5q74 0 107 23t33 65q0 41 -28 62.5t-82 21.5h-118v60h108q48 0 75.5 21.5t27.5 59.5q0 39 -30 61.5t-94 22.5q-51 0 -94.5 -13.5t-82.5 -42.5l-27 55q41 32 95 47t117 15q94 0 143 -36.5
t49 -103.5q0 -47 -32 -80.5t-85 -39.5v12q60 -2 97 -36t37 -89q0 -67 -54.5 -107t-161.5 -40z" />
    <glyph glyph-name="uni0438" unicode="&#x438;" horiz-adv-x="595" 
d="M80 0v502h74v-427h-27l320 427h68v-502h-73v428h27l-320 -428h-69z" />
    <glyph glyph-name="uni0439" unicode="&#x439;" horiz-adv-x="595" 
d="M80 0v502h74v-427h-27l320 427h68v-502h-73v428h27l-320 -428h-69zM297 549q-41 0 -76 14t-61 42.5t-39 70.5l48 18q18 -48 49.5 -71t79.5 -23t79 21t54 72l46 -17q-26 -68 -72.5 -97.5t-107.5 -29.5z" />
    <glyph glyph-name="uni043A" unicode="&#x43a;" horiz-adv-x="538" 
d="M80 0v502h81v-211h95l166 211h89l-190 -243l-22 25q29 -3 50 -14t40.5 -33t42.5 -61l104 -176h-87l-92 156q-17 29 -32.5 44t-35 21t-48.5 6h-80v-227h-81z" />
    <glyph glyph-name="uni043B" unicode="&#x43b;" horiz-adv-x="587" 
d="M53 -11l-30 63q35 16 58.5 39.5t37.5 60t20 91t6 131.5v128h362v-502h-80v438h-207v-67q0 -118 -16.5 -194t-53 -120.5t-97.5 -67.5z" />
    <glyph glyph-name="uni043C" unicode="&#x43c;" horiz-adv-x="673" 
d="M80 0v502h68l188 -337l189 337h68v-502h-72v412h21l-185 -331h-41l-186 332h22v-413h-72z" />
    <glyph glyph-name="uni043D" unicode="&#x43d;" horiz-adv-x="598" 
d="M80 0v502h81v-210h276v210h81v-502h-81v227h-276v-227h-81z" />
    <glyph glyph-name="uni043E" unicode="&#x43e;" horiz-adv-x="581" 
d="M290 -9q-72 0 -125.5 31.5t-82.5 90t-29 138.5q0 81 29 139t82.5 89.5t125.5 31.5q73 0 126.5 -31.5t83 -89.5t29.5 -139q0 -80 -29.5 -138.5t-83 -90t-126.5 -31.5zM290 57q72 0 114 49.5t42 144.5q0 96 -42.5 145.5t-113.5 49.5t-113 -49.5t-42 -145.5q0 -95 42 -144.5
t113 -49.5z" />
    <glyph glyph-name="uni043F" unicode="&#x43f;" horiz-adv-x="595" 
d="M80 0v502h435v-502h-81v438h-273v-438h-81z" />
    <glyph glyph-name="uni0440" unicode="&#x440;" horiz-adv-x="610" 
d="M84 -216v602q0 28 -2.5 57.5t-5.5 58.5h78l11 -119h-12q16 59 65 93.5t117 34.5t117.5 -31t77.5 -89t28 -140q0 -81 -27.5 -139t-77.5 -89.5t-118 -31.5q-67 0 -116 34t-65 93h11v-334h-81zM319 57q72 0 114.5 49.5t42.5 144.5q0 96 -42.5 145.5t-114.5 49.5
q-71 0 -113.5 -49.5t-42.5 -145.5q0 -95 42.5 -144.5t113.5 -49.5z" />
    <glyph glyph-name="uni0441" unicode="&#x441;" horiz-adv-x="505" 
d="M295 -9q-74 0 -128.5 32t-84 91t-29.5 140q0 82 30 139.5t84.5 87.5t127.5 30q48 0 93.5 -17t75.5 -48l-29 -58q-30 29 -65.5 43t-69.5 14q-78 0 -121 -49t-43 -143q0 -93 43 -144t121 -51q33 0 68.5 13t66.5 43l29 -57q-31 -32 -77 -49t-92 -17z" />
    <glyph glyph-name="uni0442" unicode="&#x442;" horiz-adv-x="455" 
d="M187 0v437h-182v65h446v-65h-183v-437h-81z" />
    <glyph glyph-name="uni0443" unicode="&#x443;" horiz-adv-x="541" 
d="M64 -227l-19 67q47 11 78.5 25.5t52.5 38.5t36 60l26 59l-2 -34l-219 513h88l181 -441h-26l179 441h85l-232 -544q-20 -48 -44 -80.5t-51.5 -53t-60.5 -32.5t-72 -19z" />
    <glyph glyph-name="uni0444" unicode="&#x444;" horiz-adv-x="817" 
d="M368 -216v328h10q-16 -58 -52.5 -89.5t-92.5 -31.5q-54 0 -94.5 32t-63.5 90.5t-23 137.5q0 80 22.5 138.5t63 90t95.5 31.5q56 0 92.5 -31.5t52.5 -88.5h-10v345h81v-345h-11q16 57 53.5 88.5t91.5 31.5q55 0 95.5 -31.5t63 -90t22.5 -138.5q0 -79 -22.5 -137.5
t-63 -90.5t-95.5 -32q-54 0 -91 31.5t-54 89.5h11v-328h-81zM251 55q55 0 86.5 50t31.5 146q0 95 -31.5 145.5t-86.5 50.5t-86.5 -50.5t-31.5 -145.5q0 -96 31.5 -146t86.5 -50zM565 55q55 0 87 50t32 146q0 95 -32.5 145.5t-86.5 50.5q-55 0 -86.5 -50.5t-31.5 -145.5
q0 -96 31.5 -146t86.5 -50z" />
    <glyph glyph-name="uni0445" unicode="&#x445;" horiz-adv-x="544" 
d="M16 0l225 279v-40l-213 263h98l161 -205h-29l160 205h97l-210 -262v37l223 -277h-99l-172 219h30l-174 -219h-97z" />
    <glyph glyph-name="uni0446" unicode="&#x446;" horiz-adv-x="611" 
d="M514 -130v130h-434v502h81v-438h263v438h79v-438h80v-194h-69z" />
    <glyph glyph-name="uni0447" unicode="&#x447;" horiz-adv-x="563" 
d="M404 0v204q-29 -17 -63 -26t-73 -9q-106 0 -157.5 49.5t-51.5 150.5v133h81v-127q0 -73 33.5 -105.5t105.5 -32.5q37 0 66 8t57 27v230h81v-502h-79z" />
    <glyph glyph-name="uni0448" unicode="&#x448;" horiz-adv-x="817" 
d="M80 0v502h77v-438h213v438h76v-438h213v438h78v-502h-657z" />
    <glyph glyph-name="uni0449" unicode="&#x449;" horiz-adv-x="843" 
d="M747 -130v130h-667v502h77v-438h213v438h76v-438h213v438h78v-438h79v-194h-69z" />
    <glyph glyph-name="uni044A" unicode="&#x44a;" horiz-adv-x="631" 
d="M163 0v437h-158v65h238v-180h151q98 0 147 -41.5t49 -117.5q0 -51 -22 -87.5t-66 -56t-108 -19.5h-231zM243 58h146q60 0 92.5 25.5t32.5 78.5t-32.5 77.5t-92.5 24.5h-146v-206z" />
    <glyph glyph-name="uni044B" unicode="&#x44b;" horiz-adv-x="744" 
d="M80 0v502h81v-180h151q97 0 146.5 -41.5t49.5 -117.5q0 -51 -22.5 -87.5t-66 -56t-107.5 -19.5h-232zM161 58h144q61 0 93 25.5t32 78.5t-31.5 77.5t-93.5 24.5h-144v-206zM584 0v502h80v-502h-80z" />
    <glyph glyph-name="uni044C" unicode="&#x44c;" horiz-adv-x="549" 
d="M80 0v502h81v-180h151q97 0 146.5 -41.5t49.5 -117.5q0 -51 -22.5 -87.5t-66 -56t-107.5 -19.5h-232zM161 58h144q61 0 93 25.5t32 78.5t-31.5 77.5t-93.5 24.5h-144v-206z" />
    <glyph glyph-name="uni044D" unicode="&#x44d;" horiz-adv-x="520" 
d="M223 -9q-54 0 -104 18t-78 49l28 54q30 -29 69 -43.5t81 -14.5q79 0 124 49t47 140l11 -17h-267v60h268l-12 -17q-2 53 -21 93.5t-56.5 63.5t-93.5 23q-39 0 -79.5 -14t-70.5 -45l-28 56q31 30 81 47.5t102 17.5q75 0 129.5 -30.5t84.5 -88.5t30 -139q0 -82 -30.5 -140.5
t-85.5 -90t-129 -31.5z" />
    <glyph glyph-name="uni044E" unicode="&#x44e;" horiz-adv-x="787" 
d="M497 -9q-103 0 -166 63t-71 173h-101v-227h-79v502h79v-210h102q12 103 74.5 161t161.5 58q72 0 125.5 -31t83 -89.5t29.5 -139.5q0 -80 -29.5 -138.5t-83 -90t-125.5 -31.5zM497 56q71 0 114 49.5t43 145.5t-43 145.5t-114 49.5q-72 0 -114.5 -49.5t-42.5 -145.5
t42.5 -145.5t114.5 -49.5z" />
    <glyph glyph-name="uni044F" unicode="&#x44f;" horiz-adv-x="549" 
d="M40 0l80 138q19 33 48 53.5t61 20.5h14l-1 -9q-85 0 -132 38.5t-47 111.5q0 70 46 109.5t137 39.5h223v-502h-76v194h-75q-42 0 -71 -21t-49 -53l-68 -120h-90zM260 251h133v195h-133q-61 0 -90.5 -26t-29.5 -71q0 -47 29.5 -72.5t90.5 -25.5z" />
    <glyph glyph-name="uni0450" unicode="&#x450;" horiz-adv-x="554" 
d="M307 -9q-118 0 -186 68.5t-68 190.5q0 79 30 137.5t84 91t124 32.5q69 0 116 -29t72 -82.5t25 -126.5v-30h-389v51h336l-17 -13q0 80 -36 125t-107 45q-75 0 -117 -52.5t-42 -141.5v-9q0 -94 46.5 -142.5t130.5 -48.5q45 0 84.5 13.5t75.5 44.5l28 -57
q-33 -32 -83.5 -49.5t-106.5 -17.5zM262 551l-132 202h87l103 -202h-58z" />
    <glyph glyph-name="uni0451" unicode="&#x451;" horiz-adv-x="554" 
d="M307 -9q-118 0 -186 68.5t-68 190.5q0 79 30 137.5t84 91t124 32.5q69 0 116 -29t72 -82.5t25 -126.5v-30h-389v51h336l-17 -13q0 80 -36 125t-107 45q-75 0 -117 -52.5t-42 -141.5v-9q0 -94 46.5 -142.5t130.5 -48.5q45 0 84.5 13.5t75.5 44.5l28 -57
q-33 -32 -83.5 -49.5t-106.5 -17.5zM335 609v86h86v-86h-86zM161 609v86h86v-86h-86z" />
    <glyph glyph-name="uni0452" unicode="&#x452;" horiz-adv-x="593" 
d="M322 -186l-22 63q54 12 83 33.5t40 56.5t11 87v248q0 73 -29.5 104t-87.5 31q-70 0 -111 -42.5t-41 -113.5v-281h-81v582h-96v61h96v93h81v-93h200v-61h-200v-194h-11q20 55 68.5 85.5t111.5 30.5q90 0 135.5 -47.5t45.5 -149.5v-250q0 -67 -17.5 -115t-59.5 -79.5
t-116 -48.5z" />
    <glyph glyph-name="uni0453" unicode="&#x453;" horiz-adv-x="445" 
d="M80 0v502h350v-65h-269v-437h-81zM211 551l103 202h87l-132 -202h-58z" />
    <glyph glyph-name="uni0454" unicode="&#x454;" horiz-adv-x="526" 
d="M298 -9q-76 0 -131 32t-84.5 91t-29.5 140q0 82 30 139.5t85.5 87.5t131.5 30q54 0 103 -17.5t77 -47.5l-29 -55q-30 30 -69.5 44t-79.5 14q-57 0 -94 -23t-56.5 -63.5t-21.5 -93.5l-11 17h267v-60h-268l12 18q3 -92 47 -141t125 -49q39 0 79.5 14.5t69.5 43.5l29 -54
q-29 -32 -79.5 -49.5t-102.5 -17.5z" />
    <glyph glyph-name="uni0455" unicode="&#x455;" horiz-adv-x="506" 
d="M251 -9q-60 0 -112 16.5t-86 46.5l28 57q37 -29 80.5 -43t90.5 -14q60 0 90.5 21.5t30.5 59.5q0 29 -19.5 46.5t-63.5 27.5l-93 19q-64 14 -96 47.5t-32 85.5q0 44 23 77.5t67 53t103 19.5q55 0 101.5 -16.5t77.5 -47.5l-29 -56q-30 29 -68.5 43.5t-79.5 14.5
q-59 0 -88.5 -23.5t-29.5 -61.5q0 -29 18.5 -47.5t57.5 -27.5l93 -19q68 -15 101.5 -46.5t33.5 -84.5q0 -45 -25 -78.5t-69.5 -51.5t-104.5 -18z" />
    <glyph glyph-name="uni0456" unicode="&#x456;" horiz-adv-x="248" 
d="M84 0v502h81v-502h-81zM74 616v91h100v-91h-100z" />
    <glyph glyph-name="uni0457" unicode="&#x457;" horiz-adv-x="248" 
d="M84 0v502h81v-502h-81zM168 609v86h86v-86h-86zM-6 609v86h86v-86h-86z" />
    <glyph glyph-name="uni0458" unicode="&#x458;" horiz-adv-x="248" 
d="M18 -220q-14 0 -35 3.5t-35 8.5v68q12 -4 28 -7.5t30 -3.5q42 0 62.5 26.5t20.5 86.5v540h81v-548q0 -86 -37.5 -130t-114.5 -44zM80 616v91h99v-91h-99z" />
    <glyph glyph-name="uni0459" unicode="&#x459;" horiz-adv-x="894" 
d="M53 -11l-30 63q35 16 58.5 39.5t37.5 60t20 91t6 131.5v128h360v-180h152q97 0 146.5 -41.5t49.5 -117.5q0 -51 -22.5 -87.5t-66 -56t-107.5 -19.5h-230v438h-207v-67q0 -118 -16.5 -194t-53 -120.5t-97.5 -67.5zM505 58h145q62 0 94 25.5t32 78.5t-32.5 77.5t-93.5 24.5
h-145v-206z" />
    <glyph glyph-name="uni045A" unicode="&#x45a;" horiz-adv-x="906" 
d="M80 0v502h81v-210h277v210h80v-180h151q98 0 147 -41.5t49 -117.5q0 -51 -22.5 -87.5t-66 -56t-107.5 -19.5h-231v227h-277v-227h-81zM518 58h144q62 0 94 25.5t32 78.5t-32 77.5t-94 24.5h-144v-206z" />
    <glyph glyph-name="uni045B" unicode="&#x45b;" horiz-adv-x="595" 
d="M84 0v582h-96v61h96v93h81v-93h199v-61h-199v-195h-13q21 58 70.5 88.5t114.5 30.5q89 0 133.5 -48.5t44.5 -146.5v-311h-81v306q0 70 -28 101.5t-88 31.5q-70 0 -111.5 -42t-41.5 -113v-284h-81z" />
    <glyph glyph-name="uni045C" unicode="&#x45c;" horiz-adv-x="538" 
d="M80 0v502h81v-211h95l166 211h89l-190 -243l-22 25q29 -3 50 -14t40.5 -33t42.5 -61l104 -176h-87l-92 156q-17 29 -32.5 44t-35 21t-48.5 6h-80v-227h-81zM266 551l103 202h87l-132 -202h-58z" />
    <glyph glyph-name="uni045D" unicode="&#x45d;" horiz-adv-x="595" 
d="M80 0v502h74v-427h-27l320 427h68v-502h-73v428h27l-320 -428h-69zM269 551l-132 202h87l103 -202h-58z" />
    <glyph glyph-name="uni045E" unicode="&#x45e;" horiz-adv-x="541" 
d="M64 -227l-19 67q47 11 78.5 25.5t52.5 38.5t36 60l26 59l-2 -34l-219 513h88l181 -441h-26l179 441h85l-232 -544q-20 -48 -44 -80.5t-51.5 -53t-60.5 -32.5t-72 -19zM269 549q-41 0 -76 14t-61 42.5t-39 70.5l48 18q18 -48 49.5 -71t79.5 -23t79 21t54 72l46 -17
q-26 -68 -72.5 -97.5t-107.5 -29.5z" />
    <glyph glyph-name="uni045F" unicode="&#x45f;" horiz-adv-x="595" 
d="M262 -130v130h-182v502h81v-438h273v438h81v-502h-183v-130h-70z" />
    <glyph glyph-name="uni0462" unicode="&#x462;" horiz-adv-x="745" 
d="M159 0v536h-179v65h179v104h80v-104h246v-65h-246v-142h221q114 0 176.5 -49t62.5 -147q0 -97 -62.5 -147.5t-176.5 -50.5h-301zM239 67h214q84 0 124.5 32.5t40.5 98.5q0 65 -40.5 97t-124.5 32h-214v-260z" />
    <glyph glyph-name="uni0463" unicode="&#x463;" horiz-adv-x="632" 
d="M163 0v443h-158v59h158v234h81v-234h167v-59h-167v-130h155q94 0 143 -40t49 -116t-49.5 -116.5t-142.5 -40.5h-236zM244 54h146q60 0 92 25.5t32 77.5q0 53 -32 77t-92 24h-146v-204z" />
    <glyph glyph-name="uni046A" unicode="&#x46a;" horiz-adv-x="980" 
d="M11 0l123 246q23 44 53.5 76t75 50t106.5 18h61l-6 -20l-299 335h730l-299 -335l-6 20h61q62 0 106.5 -18t75.5 -50t52 -76l124 -246h-89l-102 207q-29 61 -67 87.5t-97 26.5h-83v-321h-82v321h-82q-59 0 -97 -26.5t-68 -87.5l-102 -207h-89zM489 392h2l248 282v-30h-499
v30z" />
    <glyph glyph-name="uni046B" unicode="&#x46b;" horiz-adv-x="807" 
d="M1 0l104 170q27 44 49.5 69t51 35.5t72.5 10.5h74l-10 -19l-205 236h533l-204 -236l-11 19h75q44 0 72.5 -10.5t51.5 -35.5t48 -69l103 -170h-87l-91 150q-18 29 -33.5 44.5t-34.5 21.5t-48 6h-67v-222h-81v222h-68q-27 0 -46.5 -6t-35 -21.5t-33.5 -44.5l-92 -150h-87z
M403 285h2l155 185v-24h-313v24z" />
    <glyph glyph-name="uni0472" unicode="&#x472;" horiz-adv-x="772" 
d="M104 326v65h575v-65h-575zM62 353q0 112 38.5 192.5t111 124.5t174.5 44q99 0 172 -44t112.5 -124.5t39.5 -191.5q0 -112 -40 -193t-112.5 -125.5t-171.5 -44.5q-102 0 -174 44.5t-111 125.5t-39 192zM149 353q0 -136 60 -212.5t177 -76.5q112 0 174.5 76.5t62.5 212.5
q0 137 -62 212.5t-175 75.5q-117 0 -177 -75.5t-60 -212.5z" />
    <glyph glyph-name="uni0473" unicode="&#x473;" horiz-adv-x="581" 
d="M290 -9q-72 0 -125.5 31.5t-82.5 90t-29 138.5q0 81 29 139t82.5 89.5t125.5 31.5q73 0 126.5 -31.5t83 -89.5t29.5 -139q0 -80 -29.5 -138.5t-83 -90t-126.5 -31.5zM290 57q75 0 118 50.5t43 144.5q0 93 -43 143.5t-118 50.5t-117.5 -50.5t-42.5 -143.5
q0 -94 42.5 -144.5t117.5 -50.5zM100 223v57h382v-57h-382z" />
    <glyph glyph-name="uni0474" unicode="&#x474;" horiz-adv-x="767" 
d="M308 0l-305 705h89l271 -639h-31l199 459q23 53 47 89t52 58t65 32t87 10l8 -68q-48 0 -79.5 -12.5t-55.5 -44t-50 -87.5l-222 -502h-75z" />
    <glyph glyph-name="uni0475" unicode="&#x475;" horiz-adv-x="567" 
d="M231 0l-214 502h87l180 -442h-27l137 330q19 47 41.5 73t56 37t83.5 11l7 -65q-49 0 -75 -20t-47 -70l-152 -356h-77z" />
    <glyph glyph-name="uni048A" unicode="&#x48a;" horiz-adv-x="767" 
d="M617 -157l54 157h-89v69h184l-78 -226h-71zM88 0v705h77v-603h-23l452 603h65v-705h-77v603h22l-453 -603h-63zM375 760q-45 0 -84 14.5t-67 43.5t-44 74l48 17q20 -50 56 -73.5t90 -23.5q55 0 91 21.5t62 74.5l46 -16q-28 -72 -80.5 -102t-117.5 -30z" />
    <glyph glyph-name="uni048B" unicode="&#x48b;" horiz-adv-x="621" 
d="M462 -130l48 130h-68v64h160l-70 -194h-70zM80 0v502h74v-427h-27l320 427h68v-502h-73v428h27l-320 -428h-69zM297 549q-41 0 -76 14t-60.5 42.5t-39.5 70.5l48 18q18 -48 49.5 -71t79.5 -23t79 21t55 72l46 -17q-27 -68 -73.5 -97.5t-107.5 -29.5z" />
    <glyph glyph-name="uni048C" unicode="&#x48c;" horiz-adv-x="734" 
d="M148 0v537h-148v64h148v104h80v-104h147v-64h-147v-143h219q114 0 177.5 -49t63.5 -147q0 -97 -63.5 -147.5t-177.5 -50.5h-299zM228 67h211q84 0 126 32.5t42 98.5q0 65 -42 97t-126 32h-211v-260z" />
    <glyph glyph-name="uni048D" unicode="&#x48d;" horiz-adv-x="632" 
d="M163 0v443h-158v59h158v234h81v-234h167v-59h-167v-130h155q94 0 143 -40t49 -116t-49.5 -116.5t-142.5 -40.5h-236zM244 54h146q60 0 92 25.5t32 77.5q0 53 -32 77t-92 24h-146v-204z" />
    <glyph glyph-name="uni048E" unicode="&#x48e;" horiz-adv-x="651" 
d="M88 0v705h280q116 0 177 -55t61 -157q0 -71 -33 -121t-94 -72l3 16l59 -87l-44 -29l-69 101l18 -11q-16 -3 -35 -5.5t-43 -2.5h-199v-282h-81zM169 350h189q14 0 29.5 1t26.5 3l-14 -12l-56 83l43 29l68 -99l-17 7q87 30 87 131q0 145 -169 145h-187v-288z" />
    <glyph glyph-name="uni048F" unicode="&#x48f;" horiz-adv-x="610" 
d="M83 -216v602q0 28 -2.5 57.5t-5.5 58.5h79l10 -119h-11q16 59 65 93.5t117 34.5t117.5 -31t77 -89t27.5 -140q0 -73 -23 -129t-65 -88l4 14l51 -63l-39 -29l-51 65h13q-46 -30 -112 -30q-68 0 -116.5 34t-65.5 93h11v-334h-81zM319 446q-71 0 -113.5 -49.5t-42.5 -145.5
q0 -95 42.5 -145.5t113.5 -48.5q48 1 82 22l-4 -11l-56 70l38 30l60 -76l-15 5q51 49 51 154q0 96 -42.5 145.5t-113.5 49.5z" />
    <glyph glyph-name="uni0490" unicode="&#x490;" horiz-adv-x="556" 
d="M88 0v705h379v155h74v-225h-371v-635h-82z" />
    <glyph glyph-name="uni0491" unicode="&#x491;" horiz-adv-x="445" 
d="M80 0v502h280v116h70v-181h-269v-437h-81z" />
    <glyph glyph-name="uni0492" unicode="&#x492;" horiz-adv-x="594" 
d="M126 0v321h-100v63h100v321h453v-70h-370v-251h190v-63h-190v-321h-83z" />
    <glyph glyph-name="uni0493" unicode="&#x493;" horiz-adv-x="468" 
d="M104 0v213h-99v60h99v229h350v-64h-270v-165h151v-60h-151v-213h-80z" />
    <glyph glyph-name="uni0494" unicode="&#x494;" horiz-adv-x="684" 
d="M416 -189q-28 0 -56.5 4t-46.5 10v70q19 -8 43 -12.5t52 -4.5q66 0 101.5 43t35.5 127v94q0 114 -52 167t-159 53q-48 0 -89 -9.5t-76 -28.5v-324h-81v705h453v-70h-372v-236q30 17 76.5 26.5t96.5 9.5q141 0 213 -71.5t72 -215.5v-97q0 -77 -25.5 -131t-72.5 -81.5
t-113 -27.5z" />
    <glyph glyph-name="uni0495" unicode="&#x495;" horiz-adv-x="563" 
d="M325 -186l-22 63q55 12 83.5 34t39 57t10.5 86v72q0 75 -28 107.5t-91 32.5q-71 0 -113.5 -43t-42.5 -113v-110h-81v502h350v-62h-269v-228l-15 -1q22 57 72 89.5t117 32.5q91 0 136 -49.5t45 -152.5v-74q0 -67 -17 -115t-58 -79.5t-116 -48.5z" />
    <glyph glyph-name="uni0496" unicode="&#x496;" horiz-adv-x="1005" 
d="M966 -157v157h-49v69h123v-226h-74zM11 0l122 245q33 64 78 99.5t108 42.5l-30 -26l-239 344h93l226 -330l-23 16h112v314h81v-314h114l-25 -16l226 330h92l-238 -344l-30 26q63 -7 107.5 -42.5t76.5 -99.5l123 -245h-89l-101 207q-30 61 -69.5 87.5t-96.5 26.5h-90v-321
h-81v321h-90q-59 0 -98.5 -26.5t-68.5 -87.5l-100 -207h-90z" />
    <glyph glyph-name="uni0497" unicode="&#x497;" horiz-adv-x="850" 
d="M763 -130v130h-39v64h109v-194h-70zM1 0l104 176q24 39 43 61t40.5 33t49.5 14l-20 -25l-191 243h89l167 -211h81v211h81v-211h80l166 211h90l-192 -243l-21 25q29 -3 50.5 -14t41.5 -33t43 -61l103 -176h-87l-92 156q-17 29 -32.5 44t-34.5 21t-48 6h-67v-227h-81v227
h-68q-29 0 -48 -6t-34.5 -21t-32.5 -44l-92 -156h-88z" />
    <glyph glyph-name="uni0498" unicode="&#x498;" horiz-adv-x="653" 
d="M288 -157v192h74v-192h-74zM320 -9q-92 0 -163.5 24.5t-116.5 66.5l30 64q49 -42 108 -62.5t138 -20.5q102 0 149 34t47 100q0 65 -41.5 95.5t-125.5 30.5h-178v68h164q80 0 122 31.5t42 91.5t-44.5 94t-133.5 34q-66 0 -124 -19.5t-106 -60.5l-31 64q47 43 117.5 65.5
t148.5 22.5q126 0 190.5 -52t64.5 -140q0 -65 -39.5 -109.5t-107.5 -59.5v14q76 -9 120 -54.5t44 -119.5q0 -62 -30 -107.5t-91 -70t-153 -24.5z" />
    <glyph glyph-name="uni0499" unicode="&#x499;" horiz-adv-x="508" 
d="M218 -130v168h68v-168h-68zM246 -9q-64 0 -120.5 17.5t-92.5 48.5l28 57q37 -30 83.5 -45.5t101.5 -15.5q74 0 107 23t33 65q0 41 -28 62.5t-82 21.5h-118v60h108q48 0 75.5 21.5t27.5 59.5q0 39 -30 61.5t-94 22.5q-51 0 -94.5 -13.5t-82.5 -42.5l-27 55q41 32 95 47
t117 15q94 0 143 -36.5t49 -103.5q0 -47 -32 -80.5t-85 -39.5v12q60 -2 97 -36t37 -89q0 -67 -54.5 -107t-161.5 -40z" />
    <glyph glyph-name="uni049A" unicode="&#x49a;" horiz-adv-x="684" 
d="M624 -157v157h-49v69h123v-226h-74zM88 0v705h81v-314h144l-25 -16l226 330h93l-239 -344l-30 26q64 -7 108 -42.5t77 -99.5l123 -245h-90l-101 207q-29 62 -68.5 88t-97.5 26h-120v-321h-81z" />
    <glyph glyph-name="uni049B" unicode="&#x49b;" horiz-adv-x="581" 
d="M493 -130v130h-39v64h109v-194h-70zM80 0v502h81v-211h95l166 211h89l-190 -243l-22 25q29 -3 50 -14t40.5 -33t42.5 -61l104 -176h-87l-92 156q-17 29 -32.5 44t-35 21t-48.5 6h-80v-227h-81z" />
    <glyph glyph-name="uni049C" unicode="&#x49c;" horiz-adv-x="686" 
d="M88 0v705h82v-314h75v167h54v-167h29l215 314h93l-239 -344l-30 26q63 -7 108 -42.5t78 -99.5l122 -245h-90l-100 207q-30 62 -69.5 88t-97.5 26h-30l11 10v-176h-54v166h-75v-321h-82z" />
    <glyph glyph-name="uni049D" unicode="&#x49d;" horiz-adv-x="568" 
d="M80 0v502h81v-211h56v116h54v-116h15l165 211h90l-190 -243l-23 25q28 -3 49.5 -14t41.5 -33t43 -61l104 -176h-87l-92 156q-17 28 -32.5 43.5t-35 21.5t-48.5 6h-15l15 12v-138h-54v126h-56v-227h-81z" />
    <glyph glyph-name="uni049E" unicode="&#x49e;" horiz-adv-x="704" 
d="M133 0v541h-146v61h146v103h81v-103h146v-61h-146v-150h153l-28 -21l231 335h93l-244 -349l-23 28q54 -7 96 -41t75 -98l124 -245h-90l-101 207q-30 62 -69 88t-97 26h-120v-321h-81z" />
    <glyph glyph-name="uni049F" unicode="&#x49f;" horiz-adv-x="541" 
d="M84 0v582h-96v61h96v93h81v-93h200v-61h-200v-293h96l163 206h89l-189 -239l-20 24q30 -3 50 -13.5t39 -32.5t43 -62l104 -172h-88l-92 154q-17 29 -32.5 44.5t-34.5 21.5t-48 6h-80v-226h-81z" />
    <glyph glyph-name="uni04A0" unicode="&#x4a0;" horiz-adv-x="800" 
d="M10 636v69h303v-69h-303zM231 0v705h82v-314h143l-24 -16l225 330h93l-238 -344l-30 26q63 -7 107 -42.5t77 -99.5l123 -245h-90l-100 207q-30 62 -69.5 88t-96.5 26h-120v-321h-82z" />
    <glyph glyph-name="uni04A1" unicode="&#x4a1;" horiz-adv-x="621" 
d="M163 0v437h-158v65h239v-211h95l166 211h89l-189 -243l-23 25q29 -3 50 -14t40.5 -33t43.5 -61l104 -176h-88l-92 156q-17 28 -33 43.5t-34.5 21.5t-47.5 6h-81v-227h-81z" />
    <glyph glyph-name="uni04A2" unicode="&#x4a2;" horiz-adv-x="808" 
d="M724 -157v157h-108v69h183v-226h-75zM88 0v705h83v-312h425v312h82v-705h-82v322h-425v-322h-83z" />
    <glyph glyph-name="uni04A3" unicode="&#x4a3;" horiz-adv-x="599" 
d="M528 -130v130h-86v64h156v-194h-70zM80 0v502h81v-210h276v210h81v-502h-81v227h-276v-227h-81z" />
    <glyph glyph-name="uni04A4" unicode="&#x4a4;" horiz-adv-x="955" 
d="M88 0v705h81v-312h427v312h345v-70h-263v-635h-82v323h-427v-323h-81z" />
    <glyph glyph-name="uni04A5" unicode="&#x4a5;" horiz-adv-x="758" 
d="M80 0v502h81v-210h271v210h312v-65h-231v-437h-81v227h-271v-227h-81z" />
    <glyph glyph-name="uni04A8" unicode="&#x4a8;" horiz-adv-x="833" 
d="M398 -9q-105 0 -180 43t-115.5 123.5t-40.5 193.5q0 114 40 195t114 124.5t178 43.5q23 0 41 -2t31 -5l-11 -69q-18 2 -33 3.5t-27 1.5q-118 0 -182.5 -75.5t-64.5 -214.5q0 -142 65 -218.5t187 -76.5q85 0 145 32.5t91 92.5t31 144q0 76 -32 118t-88 42q-57 0 -89 -42
t-32 -118q0 -83 31 -143.5t91 -93t145 -32.5q39 0 71.5 8.5t63.5 23.5l20 -65q-28 -17 -67 -25.5t-89 -8.5q-75 0 -138 24.5t-109 69.5t-71.5 107t-25.5 136q0 71 24.5 122t69 78.5t105.5 27.5t105 -27.5t68 -78.5t24 -122q0 -72 -25 -133.5t-71.5 -107t-110 -71
t-139.5 -25.5z" />
    <glyph glyph-name="uni04A9" unicode="&#x4a9;" horiz-adv-x="659" 
d="M317 -9q-124 0 -194 71t-70 193q0 79 29.5 136.5t84 88.5t127.5 31q32 0 59.5 -5.5t45.5 -14.5l-17 -60q-17 9 -40 13.5t-49 4.5q-74 0 -117.5 -52t-43.5 -142q0 -98 50 -151t137 -53q93 0 142 45.5t49 124.5q0 50 -22 78t-59 28t-59 -28t-22 -78q0 -55 22.5 -93
t65 -57.5t103.5 -19.5q32 0 60.5 7.5t52.5 21.5l17 -59q-55 -30 -126 -30q-57 0 -105 17t-83.5 48t-55 73.5t-19.5 92.5q0 75 41 119.5t108 44.5q68 0 108.5 -44.5t40.5 -119.5q0 -51 -19.5 -93.5t-55.5 -73.5t-83.5 -47.5t-102.5 -16.5z" />
    <glyph glyph-name="uni04AA" unicode="&#x4aa;" horiz-adv-x="684" 
d="M359 -157v192h74v-192h-74zM395 -9q-106 0 -180 44t-113.5 125t-39.5 193t39.5 192.5t113.5 124.5t180 44q75 0 134 -23t103 -67l-31 -66q-48 42 -95 61.5t-110 19.5q-121 0 -184 -75t-63 -211t63 -211.5t184 -75.5q63 0 110 19.5t95 62.5l31 -67q-44 -43 -103 -66.5
t-134 -23.5z" />
    <glyph glyph-name="uni04AB" unicode="&#x4ab;" horiz-adv-x="504" 
d="M255 -130v168h69v-168h-69zM295 -9q-74 0 -128.5 32t-84 91t-29.5 141q0 81 30 138.5t84 87.5t128 30q48 0 93.5 -17t74.5 -48l-29 -58q-29 29 -64.5 43t-70.5 14q-77 0 -120 -49t-43 -142q0 -94 43 -145t120 -51q34 0 69.5 13t65.5 43l29 -57q-30 -32 -76 -49t-92 -17z
" />
    <glyph glyph-name="uni04AC" unicode="&#x4ac;" horiz-adv-x="604" 
d="M370 -157v157h-111v635h-249v70h580v-70h-248v-566h102v-226h-74z" />
    <glyph glyph-name="uni04AD" unicode="&#x4ad;" horiz-adv-x="457" 
d="M277 -130v130h-86v64h156v-194h-70zM187 0v437h-182v65h446v-65h-183v-437h-81z" />
    <glyph glyph-name="uni04AE" unicode="&#x4ae;" horiz-adv-x="607" 
d="M262 0v329l18 -56l-292 432h96l232 -351h-21l231 351h92l-291 -432l18 56v-329h-83z" />
    <glyph glyph-name="uni04AF" unicode="&#x4af;" horiz-adv-x="537" 
d="M227 -216v218l-214 500h88l181 -442h-28l183 442h83l-212 -496v-222h-81z" />
    <glyph glyph-name="uni04B0" unicode="&#x4b0;" horiz-adv-x="607" 
d="M262 0v329l18 -56l-292 432h96l232 -351h-21l231 351h92l-291 -432l18 56v-329h-83zM98 291v54h412v-54h-412z" />
    <glyph glyph-name="uni04B1" unicode="&#x4b1;" horiz-adv-x="537" 
d="M227 -188v144h-126v61h129v-22l-217 507h88l181 -442h-28l183 442h83l-216 -503v18h129v-61h-125v-144h-81z" />
    <glyph glyph-name="uni04B2" unicode="&#x4b2;" horiz-adv-x="680" 
d="M617 -157v157h-48v69h123v-226h-75zM9 0l281 376v-31l-268 360h98l220 -301h-26l218 301h99l-269 -360v31l281 -376h-98l-235 319h32l-235 -319h-98z" />
    <glyph glyph-name="uni04B3" unicode="&#x4b3;" horiz-adv-x="567" 
d="M488 -130v130h-39v64h110v-194h-71zM16 0l225 279v-40l-213 263h98l161 -205h-30l161 205h96l-209 -262v37l222 -277h-98l-172 219h30l-174 -219h-97z" />
    <glyph glyph-name="uni04B4" unicode="&#x4b4;" horiz-adv-x="948" 
d="M851 -157v157h-618v635h-223v70h517v-70h-213v-565h426v635h82v-635h103v-227h-74z" />
    <glyph glyph-name="uni04B5" unicode="&#x4b5;" horiz-adv-x="710" 
d="M612 -130v130h-449v437h-158v65h398v-65h-160v-373h279v438h81v-438h79v-194h-70z" />
    <glyph glyph-name="uni04B6" unicode="&#x4b6;" horiz-adv-x="734" 
d="M632 -157v157h-108v69h182v-226h-74zM522 0v298q-33 -17 -82 -26.5t-99 -9.5q-138 0 -210.5 72t-72.5 215v156h82v-150q0 -114 52 -167t156 -53q47 0 91 9.5t83 29.5v331h82v-705h-82z" />
    <glyph glyph-name="uni04B7" unicode="&#x4b7;" horiz-adv-x="564" 
d="M493 -130v130h-86v64h156v-194h-70zM404 0v204q-29 -17 -63 -26t-73 -9q-106 0 -157.5 49.5t-51.5 150.5v133h81v-127q0 -73 33.5 -105.5t105.5 -32.5q37 0 66 8t57 27v230h81v-502h-79z" />
    <glyph glyph-name="uni04B8" unicode="&#x4b8;" horiz-adv-x="692" 
d="M522 0v298q-32 -16 -78 -25.5t-92 -9.5l15 13v-165h-56v165l13 -14q-128 7 -197 76t-69 211v156h82v-150q0 -110 48 -162t140 -57l-17 -11v184h56v-184l-17 10q45 0 90 9.5t82 29.5v331h82v-705h-82z" />
    <glyph glyph-name="uni04B9" unicode="&#x4b9;" horiz-adv-x="578" 
d="M418 0v204q-27 -15 -59 -24t-62 -10l14 15v-116h-55v116l20 -15q-110 0 -163.5 50t-53.5 149v133h81v-128q0 -72 34 -104.5t102 -33.5l-20 -10v140h55v-140l-16 10q33 0 63 8.5t60 25.5v232h80v-502h-80z" />
    <glyph glyph-name="uni04BA" unicode="&#x4ba;" horiz-adv-x="692" 
d="M88 0v705h82v-298q33 18 82 27t98 9q139 0 212 -71.5t73 -215.5v-156h-83v150q0 114 -52.5 167.5t-156.5 53.5q-45 0 -89.5 -8.5t-83.5 -30.5v-332h-82z" />
    <glyph glyph-name="uni04BB" unicode="&#x4bb;" horiz-adv-x="595" 
d="M84 0v736h81v-345h-13q21 59 70.5 89.5t114.5 30.5q90 0 134 -48.5t44 -146.5v-316h-81v311q0 70 -27.5 102t-88.5 32q-70 0 -111.5 -43t-41.5 -113v-289h-81z" />
    <glyph glyph-name="uni04BC" unicode="&#x4bc;" horiz-adv-x="909" 
d="M562 -9q-159 0 -247 91t-94 251l20 -18h-40q-91 0 -136 43.5t-45 127.5v56h80v-54q0 -55 25.5 -79.5t80.5 -24.5h28l-13 -15q4 107 42.5 184t108.5 119t164 42q112 0 180 -45t99.5 -126.5t31.5 -190.5v-36h-556l15 28q2 -135 67.5 -207.5t196.5 -72.5q50 0 85.5 9t66 27
t65.5 46l32 -65q-34 -29 -71.5 -49t-82 -30.5t-103.5 -10.5zM539 643q-111 0 -171.5 -74.5t-61.5 -211.5l-15 27h494l-22 -32q0 95 -21.5 159.5t-70.5 98t-132 33.5z" />
    <glyph glyph-name="uni04BD" unicode="&#x4bd;" horiz-adv-x="658" 
d="M414 -9q-118 0 -187 69.5t-67 197.5l7 -15h-17q-68 1 -100 33.5t-32 95.5v37h67v-38q0 -40 16 -58.5t56 -18.5h27l-24 -25q4 73 35 127.5t83 84.5t120 30q69 0 116 -29t72 -82.5t25 -126.5v-30h-383l11 15q-2 -101 44 -151t133 -50q45 0 84.5 13.5t75.5 44.5l28 -57
q-33 -32 -83.5 -49.5t-106.5 -17.5zM398 451q-50 0 -85 -23.5t-53 -63.5t-20 -91l-12 21h330l-17 -13q0 80 -36 125t-107 45z" />
    <glyph glyph-name="uni04BE" unicode="&#x4be;" horiz-adv-x="909" 
d="M562 -9q-159 0 -247 91t-94 251l20 -18h-40q-91 0 -136 43.5t-45 127.5v56h80v-54q0 -55 25.5 -79.5t80.5 -24.5h28l-13 -15q4 107 42.5 184t108.5 119t164 42q112 0 180 -45t99.5 -126.5t31.5 -190.5v-36h-556l15 28q2 -135 67.5 -207.5t196.5 -72.5q50 0 85.5 9t66 27
t65.5 46l32 -65q-34 -29 -71.5 -49t-82 -30.5t-103.5 -10.5zM539 643q-111 0 -171.5 -74.5t-61.5 -211.5l-15 27h494l-22 -32q0 95 -21.5 159.5t-70.5 98t-132 33.5zM599 -192q-48 0 -77 26t-29 71q0 40 26 75.5t70 55.5l29 -36q-16 -6 -31.5 -18.5t-25.5 -29.5t-10 -38
q0 -28 17 -42t41 -14q14 0 27 3t27 9l14 -45q-14 -8 -34 -12.5t-44 -4.5z" />
    <glyph glyph-name="uni04BF" unicode="&#x4bf;" horiz-adv-x="658" 
d="M414 -9q-118 0 -187 69.5t-67 197.5l7 -15h-17q-68 1 -100 33.5t-32 95.5v37h67v-38q0 -40 16 -58.5t56 -18.5h27l-24 -25q4 73 35 127.5t83 84.5t120 30q69 0 116 -29t72 -82.5t25 -126.5v-30h-383l11 15q-2 -101 44 -151t133 -50q45 0 84.5 13.5t75.5 44.5l28 -57
q-33 -32 -83.5 -49.5t-106.5 -17.5zM398 451q-50 0 -85 -23.5t-53 -63.5t-20 -91l-12 21h330l-17 -13q0 80 -36 125t-107 45zM462 -192q-48 0 -77 26t-29 71q0 40 26 75.5t70 55.5l29 -36q-16 -6 -31.5 -18.5t-25.5 -29.5t-10 -38q0 -28 17 -42t41 -14q14 0 27 3t27 9
l14 -45q-14 -8 -34 -12.5t-44 -4.5z" />
    <glyph glyph-name="uni04C0" unicode="&#x4c0;" horiz-adv-x="259" 
d="M88 0v705h83v-705h-83z" />
    <glyph glyph-name="uni04C1" unicode="&#x4c1;" horiz-adv-x="996" 
d="M11 0l122 245q33 64 78 99.5t108 42.5l-30 -26l-239 344h93l226 -330l-23 16h112v314h81v-314h114l-25 -16l226 330h92l-238 -344l-30 26q63 -7 107.5 -42.5t76.5 -99.5l123 -245h-89l-101 207q-30 61 -69.5 87.5t-96.5 26.5h-90v-321h-81v321h-90q-59 0 -98.5 -26.5
t-68.5 -87.5l-100 -207h-90zM498 760q-45 0 -84.5 14.5t-67.5 43.5t-43 74l48 17q20 -50 56 -73.5t90 -23.5q55 0 90.5 21.5t62.5 74.5l46 -16q-29 -72 -81 -102t-117 -30z" />
    <glyph glyph-name="uni04C2" unicode="&#x4c2;" horiz-adv-x="808" 
d="M1 0l104 176q24 39 43 61t40.5 33t49.5 14l-20 -25l-191 243h89l167 -211h81v211h81v-211h80l166 211h90l-192 -243l-21 25q29 -3 50.5 -14t41.5 -33t43 -61l103 -176h-87l-92 156q-17 29 -32.5 44t-34.5 21t-48 6h-67v-227h-81v227h-68q-29 0 -48 -6t-34.5 -21
t-32.5 -44l-92 -156h-88zM403 549q-41 0 -76 14t-61 42.5t-39 70.5l48 18q18 -48 49.5 -71t79.5 -23t79 21t54 72l46 -17q-26 -68 -72.5 -97.5t-107.5 -29.5z" />
    <glyph glyph-name="uni04C3" unicode="&#x4c3;" horiz-adv-x="684" 
d="M416 -189q-28 0 -56.5 4t-46.5 10v70q19 -8 43 -12.5t52 -4.5q66 0 101.5 42.5t35.5 126.5v54q0 117 -55.5 169.5t-167.5 52.5h-153v-323h-81v705h81v-311h149l-27 -19l227 330h92l-239 -344l-9 30q131 -6 198 -75.5t67 -208.5v-58q0 -77 -25.5 -130.5t-72.5 -80.5
t-113 -27z" />
    <glyph glyph-name="uni04C4" unicode="&#x4c4;" horiz-adv-x="551" 
d="M314 -186l-23 63q54 12 82.5 33.5t39 56t10.5 83.5v31q0 77 -35.5 111.5t-107.5 34.5h-119v-227h-81v502h81v-211h95l166 211h89l-192 -243l-30 31q100 0 157.5 -50.5t57.5 -153.5v-34q0 -64 -17 -111t-58.5 -78.5t-114.5 -48.5z" />
    <glyph glyph-name="uni04C5" unicode="&#x4c5;" horiz-adv-x="782" 
d="M630 -157l54 157h-89v69h184l-78 -226h-71zM56 -15l-39 65q42 22 75 52.5t55.5 79.5t34 124.5t11.5 186.5v212h481v-705h-82v635h-322v-163q0 -109 -14 -189.5t-41.5 -138t-67 -96t-91.5 -63.5z" />
    <glyph glyph-name="uni04C6" unicode="&#x4c6;" horiz-adv-x="613" 
d="M451 -130l48 130h-68v64h160l-70 -194h-70zM53 -11l-30 63q35 16 58.5 39.5t37.5 60t20 91t6 131.5v128h362v-502h-80v438h-207v-67q0 -118 -16.5 -194t-53 -120.5t-97.5 -67.5z" />
    <glyph glyph-name="uni04C7" unicode="&#x4c7;" horiz-adv-x="766" 
d="M516 -186q-16 0 -36.5 2t-41.5 6v69q19 -4 35.5 -6.5t29.5 -2.5q46 0 69.5 28t23.5 89v323h-425v-322h-83v705h83v-312h425v312h82v-705q0 -60 -17 -102t-53 -63t-92 -21z" />
    <glyph glyph-name="uni04C8" unicode="&#x4c8;" horiz-adv-x="598" 
d="M303 -193l-5 63l44 3q48 4 72 32t24 80v242h-277v-227h-81v502h81v-210h277v210h80v-509q0 -57 -18.5 -96.5t-56 -61t-96.5 -25.5z" />
    <glyph glyph-name="uni04C9" unicode="&#x4c9;" horiz-adv-x="786" 
d="M652 -157l54 157h-90v69h184l-77 -226h-71zM88 0v705h83v-312h425v312h82v-705h-82v322h-425v-322h-83z" />
    <glyph glyph-name="uni04CA" unicode="&#x4ca;" horiz-adv-x="620" 
d="M462 -130l48 130h-68v64h159l-70 -194h-69zM80 0v502h81v-210h276v210h81v-502h-81v227h-276v-227h-81z" />
    <glyph glyph-name="uni04CB" unicode="&#x4cb;" horiz-adv-x="692" 
d="M502 -157h-76v226h138v-69h-62v-157zM522 0v298q-33 -17 -82 -26.5t-99 -9.5q-138 0 -210.5 72t-72.5 215v156h82v-150q0 -114 52 -167t156 -53q47 0 91 9.5t83 29.5v331h82v-705h-82z" />
    <glyph glyph-name="uni04CC" unicode="&#x4cc;" horiz-adv-x="585" 
d="M394 -130h-70v182h139v-52h-69v-130zM404 0v204q-29 -17 -63 -26t-73 -9q-106 0 -157.5 49.5t-51.5 150.5v133h81v-127q0 -73 33.5 -105.5t105.5 -32.5q37 0 66 8t57 27v230h81v-502h-79z" />
    <glyph glyph-name="uni04CD" unicode="&#x4cd;" horiz-adv-x="878" 
d="M751 -157l54 157h-89v69h184l-78 -226h-71zM89 0v705h72l283 -639h-29l283 639h72v-705h-76v598h30l-267 -598h-55l-268 598h30v-598h-75z" />
    <glyph glyph-name="uni04CE" unicode="&#x4ce;" horiz-adv-x="698" 
d="M541 -130l48 130h-68v64h160l-70 -194h-70zM80 0v502h68l188 -337l189 337h68v-502h-72v412h21l-185 -331h-41l-186 332h22v-413h-72z" />
    <glyph glyph-name="uni04CF" unicode="&#x4cf;" horiz-adv-x="248" 
d="M84 0v736h81v-736h-81z" />
    <glyph glyph-name="uni04D0" unicode="&#x4d0;" horiz-adv-x="735" 
d="M18 0l311 705h72l316 -705h-86l-88 201l37 -21h-431l40 21l-86 -201h-85zM364 610l-162 -380l-24 18h372l-18 -18l-166 380h-2zM366 760q-45 0 -84.5 14.5t-67.5 43.5t-43 74l48 17q20 -50 56 -73.5t90 -23.5q55 0 90.5 21.5t62.5 74.5l46 -16q-29 -72 -81 -102t-117 -30
z" />
    <glyph glyph-name="uni04D1" unicode="&#x4d1;" horiz-adv-x="610" 
d="M275 -9q-67 0 -117 31.5t-77.5 89.5t-27.5 139q0 82 27.5 140t77.5 89t117 31q68 0 117.5 -34.5t65.5 -93.5h-12l11 119h78q-3 -29 -5.5 -58.5t-2.5 -57.5v-386h-81v118h11q-16 -59 -66 -93t-116 -34zM291 57q72 0 114 49.5t42 144.5q0 96 -42 145.5t-114 49.5
q-71 0 -113.5 -49.5t-42.5 -145.5q0 -95 42.5 -144.5t113.5 -49.5zM298 549q-41 0 -76 14t-61 42.5t-39 70.5l48 18q18 -48 49.5 -71t79.5 -23t79 21t54 72l46 -17q-26 -68 -72.5 -97.5t-107.5 -29.5z" />
    <glyph glyph-name="uni04D2" unicode="&#x4d2;" horiz-adv-x="735" 
d="M18 0l311 705h72l316 -705h-86l-88 201l37 -21h-431l40 21l-86 -201h-85zM364 610l-162 -380l-24 18h372l-18 -18l-166 380h-2zM410 806v86h86v-86h-86zM236 806v86h86v-86h-86z" />
    <glyph glyph-name="uni04D3" unicode="&#x4d3;" horiz-adv-x="610" 
d="M275 -9q-67 0 -117 31.5t-77.5 89.5t-27.5 139q0 82 27.5 140t77.5 89t117 31q68 0 117.5 -34.5t65.5 -93.5h-12l11 119h78q-3 -29 -5.5 -58.5t-2.5 -57.5v-386h-81v118h11q-16 -59 -66 -93t-116 -34zM291 57q72 0 114 49.5t42 144.5q0 96 -42 145.5t-114 49.5
q-71 0 -113.5 -49.5t-42.5 -145.5q0 -95 42.5 -144.5t113.5 -49.5zM343 609v86h86v-86h-86zM169 609v86h86v-86h-86z" />
    <glyph glyph-name="uni04D4" unicode="&#x4d4;" horiz-adv-x="1006" 
d="M-2 0l431 705h527v-68h-399l21 22l26 -289l-17 22h347v-69h-340l13 10l27 -288l-12 24h334v-69h-396l-18 196l26 -16h-384l28 22l-122 -202h-92zM471 636l-243 -407l-10 20h331l-9 -22l-37 409h-32z" />
    <glyph glyph-name="uni04D5" unicode="&#x4d5;" horiz-adv-x="891" 
d="M245 -9q-53 0 -94 20.5t-64 55.5t-23 78q0 58 27 91.5t90.5 47.5t174.5 14h51v-51h-50q-84 0 -131 -9t-66 -30t-19 -59q0 -43 30.5 -70t83.5 -27q42 0 74 19.5t50.5 54t18.5 80.5v120q0 64 -28.5 92t-87.5 28q-46 0 -86.5 -12t-82.5 -40l-28 60q39 27 91.5 42t106.5 15
q77 0 120.5 -31.5t57.5 -93.5h-25q30 61 79.5 93t117.5 32q97 0 153 -63t56 -174v-27h-377v51h323l-17 -15q0 79 -36 123.5t-104 44.5q-71 0 -112.5 -47t-41.5 -136v-8q0 -97 43.5 -150t127.5 -53q43 0 82.5 14t75.5 44l29 -57q-34 -32 -85 -49.5t-104 -17.5
q-89 0 -146.5 40.5t-79.5 116.5h21q-15 -73 -67 -115t-129 -42z" />
    <glyph glyph-name="uni04D6" unicode="&#x4d6;" horiz-adv-x="588" 
d="M88 0v705h450v-68h-369v-245h347v-69h-347v-254h369v-69h-450zM334 760q-45 0 -84.5 14.5t-67.5 43.5t-43 74l48 17q20 -50 56 -73.5t90 -23.5q55 0 90.5 21.5t62.5 74.5l46 -16q-29 -72 -81 -102t-117 -30z" />
    <glyph glyph-name="uni04D7" unicode="&#x4d7;" horiz-adv-x="554" 
d="M307 -9q-118 0 -186 68.5t-68 190.5q0 79 30 137.5t84 91t124 32.5q69 0 116 -29t72 -82.5t25 -126.5v-30h-389v51h336l-17 -13q0 80 -36 125t-107 45q-75 0 -117 -52.5t-42 -141.5v-9q0 -94 46.5 -142.5t130.5 -48.5q45 0 84.5 13.5t75.5 44.5l28 -57
q-33 -32 -83.5 -49.5t-106.5 -17.5zM291 549q-41 0 -76 14t-61 42.5t-39 70.5l48 18q18 -48 49.5 -71t79.5 -23t79 21t54 72l46 -17q-26 -68 -72.5 -97.5t-107.5 -29.5z" />
    <glyph glyph-name="uni04D8" unicode="&#x4d8;" horiz-adv-x="750" 
d="M372 -9q-110 0 -178.5 45t-100 126.5t-31.5 190.5v36h556v-68h-494l22 32q0 -95 21.5 -159.5t70.5 -97.5t132 -33q112 0 172.5 75.5t60.5 215.5q0 138 -64.5 212.5t-191.5 74.5q-48 0 -86 -8.5t-71 -26.5t-67 -47l-33 65q50 44 113.5 67t151.5 23q105 0 179.5 -43.5
t114 -124t39.5 -192.5t-38 -193.5t-109 -125.5t-169 -44z" />
    <glyph glyph-name="uni04D9" unicode="&#x4d9;" horiz-adv-x="554" 
d="M263 -9q-100 0 -156.5 62.5t-56.5 171.5v33h390v-51h-337l17 15q0 -81 37 -125.5t106 -44.5q77 0 118.5 52t41.5 136v12q0 96 -46.5 145t-133.5 49q-42 0 -81.5 -13.5t-76.5 -45.5l-25 59q33 32 84 48.5t108 16.5q77 0 133 -30.5t86.5 -88.5t30.5 -140q0 -78 -30 -137
t-83.5 -91.5t-125.5 -32.5z" />
    <glyph glyph-name="uni04DA" unicode="&#x4da;" horiz-adv-x="750" 
d="M372 -9q-110 0 -178.5 45t-100 126.5t-31.5 190.5v36h556v-68h-494l22 32q0 -95 21.5 -159.5t70.5 -97.5t132 -33q112 0 172.5 75.5t60.5 215.5q0 138 -64.5 212.5t-191.5 74.5q-48 0 -86 -8.5t-71 -26.5t-67 -47l-33 65q50 44 113.5 67t151.5 23q105 0 179.5 -43.5
t114 -124t39.5 -192.5t-38 -193.5t-109 -125.5t-169 -44zM420 806v86h86v-86h-86zM246 806v86h86v-86h-86z" />
    <glyph glyph-name="uni04DB" unicode="&#x4db;" horiz-adv-x="554" 
d="M263 -9q-100 0 -156.5 62.5t-56.5 171.5v33h390v-51h-337l17 15q0 -81 37 -125.5t106 -44.5q77 0 118.5 52t41.5 136v12q0 96 -46.5 145t-133.5 49q-42 0 -81.5 -13.5t-76.5 -45.5l-25 59q33 32 84 48.5t108 16.5q77 0 133 -30.5t86.5 -88.5t30.5 -140q0 -78 -30 -137
t-83.5 -91.5t-125.5 -32.5zM313 609v86h86v-86h-86zM139 609v86h86v-86h-86z" />
    <glyph glyph-name="uni04DC" unicode="&#x4dc;" horiz-adv-x="996" 
d="M11 0l122 245q33 64 78 99.5t108 42.5l-30 -26l-239 344h93l226 -330l-23 16h112v314h81v-314h114l-25 -16l226 330h92l-238 -344l-30 26q63 -7 107.5 -42.5t76.5 -99.5l123 -245h-89l-101 207q-30 61 -69.5 87.5t-96.5 26.5h-90v-321h-81v321h-90q-59 0 -98.5 -26.5
t-68.5 -87.5l-100 -207h-90zM542 806v86h86v-86h-86zM368 806v86h86v-86h-86z" />
    <glyph glyph-name="uni04DD" unicode="&#x4dd;" horiz-adv-x="808" 
d="M1 0l104 176q24 39 43 61t40.5 33t49.5 14l-20 -25l-191 243h89l167 -211h81v211h81v-211h80l166 211h90l-192 -243l-21 25q29 -3 50.5 -14t41.5 -33t43 -61l103 -176h-87l-92 156q-17 29 -32.5 44t-34.5 21t-48 6h-67v-227h-81v227h-68q-29 0 -48 -6t-34.5 -21
t-32.5 -44l-92 -156h-88zM447 609v86h86v-86h-86zM273 609v86h86v-86h-86z" />
    <glyph glyph-name="uni04DE" unicode="&#x4de;" horiz-adv-x="653" 
d="M320 -9q-92 0 -163.5 24.5t-116.5 66.5l30 64q49 -42 108 -62.5t138 -20.5q102 0 149 34t47 100q0 65 -41.5 95.5t-125.5 30.5h-178v68h164q80 0 122 31.5t42 91.5t-44.5 94t-133.5 34q-66 0 -124 -19.5t-106 -60.5l-31 64q47 43 117.5 65.5t148.5 22.5q126 0 190.5 -52
t64.5 -140q0 -65 -39.5 -109.5t-107.5 -59.5v14q76 -9 120 -54.5t44 -119.5q0 -62 -30 -107.5t-91 -70t-153 -24.5zM367 806v86h86v-86h-86zM193 806v86h86v-86h-86z" />
    <glyph glyph-name="uni04DF" unicode="&#x4df;" horiz-adv-x="508" 
d="M246 -9q-64 0 -120.5 17.5t-92.5 48.5l28 57q37 -30 83.5 -45.5t101.5 -15.5q74 0 107 23t33 65q0 41 -28 62.5t-82 21.5h-118v60h108q48 0 75.5 21.5t27.5 59.5q0 39 -30 61.5t-94 22.5q-51 0 -94.5 -13.5t-82.5 -42.5l-27 55q41 32 95 47t117 15q94 0 143 -36.5
t49 -103.5q0 -47 -32 -80.5t-85 -39.5v12q60 -2 97 -36t37 -89q0 -67 -54.5 -107t-161.5 -40zM295 611v86h86v-86h-86zM121 611v86h86v-86h-86z" />
    <glyph glyph-name="uni04E0" unicode="&#x4e0;" horiz-adv-x="653" 
d="M320 -9q-92 0 -164 24.5t-116 66.5l32 64q49 -42 109 -62.5t135 -20.5q102 0 149 34t47 99q0 66 -43.5 96.5t-140.5 30.5h-109v57l267 281v-26h-431v70h509v-58l-266 -281l-10 23h61q116 0 180.5 -47.5t64.5 -142.5q0 -98 -68.5 -153t-205.5 -55z" />
    <glyph glyph-name="uni04E1" unicode="&#x4e1;" horiz-adv-x="507" 
d="M233 -189q-67 0 -123 16.5t-94 46.5l28 59q37 -29 82 -43t101 -14q84 0 126 38.5t42 110.5q0 65 -42 100t-119 35h-105v40l237 258v-20h-331v64h409v-54l-234 -252l-18 24h61q106 0 164 -50t58 -142q0 -67 -29 -116t-83 -75t-130 -26z" />
    <glyph glyph-name="uni04E2" unicode="&#x4e2;" horiz-adv-x="747" 
d="M88 0v705h77v-603h-23l452 603h65v-705h-77v603h22l-453 -603h-63zM212 814v55h326v-55h-326z" />
    <glyph glyph-name="uni04E3" unicode="&#x4e3;" horiz-adv-x="595" 
d="M80 0v502h74v-427h-27l320 427h68v-502h-73v428h27l-320 -428h-69zM150 625v55h296v-55h-296z" />
    <glyph glyph-name="uni04E4" unicode="&#x4e4;" horiz-adv-x="747" 
d="M88 0v705h77v-603h-23l452 603h65v-705h-77v603h22l-453 -603h-63zM419 806v86h86v-86h-86zM245 806v86h86v-86h-86z" />
    <glyph glyph-name="uni04E5" unicode="&#x4e5;" horiz-adv-x="595" 
d="M80 0v502h74v-427h-27l320 427h68v-502h-73v428h27l-320 -428h-69zM342 609v86h86v-86h-86zM168 609v86h86v-86h-86z" />
    <glyph glyph-name="uni04E6" unicode="&#x4e6;" horiz-adv-x="772" 
d="M62 353q0 112 38.5 192.5t111 124.5t174.5 44q99 0 172 -44t112.5 -124.5t39.5 -191.5q0 -112 -40 -193t-112.5 -125.5t-171.5 -44.5q-102 0 -174 44.5t-111 125.5t-39 192zM149 353q0 -136 60 -212.5t177 -76.5q112 0 174.5 76.5t62.5 212.5q0 137 -62 212.5t-175 75.5
q-117 0 -177 -75.5t-60 -212.5zM439 806v86h86v-86h-86zM265 806v86h86v-86h-86z" />
    <glyph glyph-name="uni04E7" unicode="&#x4e7;" horiz-adv-x="581" 
d="M290 -9q-72 0 -125.5 31.5t-82.5 90t-29 138.5q0 81 29 139t82.5 89.5t125.5 31.5q73 0 126.5 -31.5t83 -89.5t29.5 -139q0 -80 -29.5 -138.5t-83 -90t-126.5 -31.5zM290 57q72 0 114 49.5t42 144.5q0 96 -42.5 145.5t-113.5 49.5t-113 -49.5t-42 -145.5q0 -95 42 -144.5
t113 -49.5zM335 609v86h86v-86h-86zM161 609v86h86v-86h-86z" />
    <glyph glyph-name="uni04E8" unicode="&#x4e8;" horiz-adv-x="772" 
d="M104 326v65h575v-65h-575zM62 353q0 112 38.5 192.5t111 124.5t174.5 44q99 0 172 -44t112.5 -124.5t39.5 -191.5q0 -112 -40 -193t-112.5 -125.5t-171.5 -44.5q-102 0 -174 44.5t-111 125.5t-39 192zM149 353q0 -136 60 -212.5t177 -76.5q112 0 174.5 76.5t62.5 212.5
q0 137 -62 212.5t-175 75.5q-117 0 -177 -75.5t-60 -212.5z" />
    <glyph glyph-name="uni04E9" unicode="&#x4e9;" horiz-adv-x="581" 
d="M290 -9q-72 0 -125.5 31.5t-82.5 90t-29 138.5q0 81 29 139t82.5 89.5t125.5 31.5q73 0 126.5 -31.5t83 -89.5t29.5 -139q0 -80 -29.5 -138.5t-83 -90t-126.5 -31.5zM290 57q75 0 118 50.5t43 144.5q0 93 -43 143.5t-118 50.5t-117.5 -50.5t-42.5 -143.5
q0 -94 42.5 -144.5t117.5 -50.5zM100 223v57h382v-57h-382z" />
    <glyph glyph-name="uni04EA" unicode="&#x4ea;" horiz-adv-x="772" 
d="M104 326v65h575v-65h-575zM62 353q0 112 38.5 192.5t111 124.5t174.5 44q99 0 172 -44t112.5 -124.5t39.5 -191.5q0 -112 -40 -193t-112.5 -125.5t-171.5 -44.5q-102 0 -174 44.5t-111 125.5t-39 192zM149 353q0 -136 60 -212.5t177 -76.5q112 0 174.5 76.5t62.5 212.5
q0 137 -62 212.5t-175 75.5q-117 0 -177 -75.5t-60 -212.5zM432 806v86h86v-86h-86zM258 806v86h86v-86h-86z" />
    <glyph glyph-name="uni04EB" unicode="&#x4eb;" horiz-adv-x="581" 
d="M290 -9q-72 0 -125.5 31.5t-82.5 90t-29 138.5q0 81 29 139t82.5 89.5t125.5 31.5q73 0 126.5 -31.5t83 -89.5t29.5 -139q0 -80 -29.5 -138.5t-83 -90t-126.5 -31.5zM290 57q75 0 118 50.5t43 144.5q0 93 -43 143.5t-118 50.5t-117.5 -50.5t-42.5 -143.5
q0 -94 42.5 -144.5t117.5 -50.5zM100 223v57h382v-57h-382zM335 609v86h86v-86h-86zM161 609v86h86v-86h-86z" />
    <glyph glyph-name="uni04EC" unicode="&#x4ec;" horiz-adv-x="690" 
d="M293 -9q-75 0 -136 24t-105 67l31 67q48 -43 97 -63t112 -20q120 0 183.5 72.5t66.5 204.5l26 -19h-395v69h394l-26 -25q-3 128 -65.5 199.5t-181.5 71.5q-63 0 -112 -19.5t-99 -62.5l-31 66q45 44 106.5 67.5t136.5 23.5q106 0 180.5 -44t113.5 -124.5t39 -192.5
t-39 -193t-114 -125t-182 -44zM358 806v86h86v-86h-86zM184 806v86h86v-86h-86z" />
    <glyph glyph-name="uni04ED" unicode="&#x4ed;" horiz-adv-x="520" 
d="M223 -9q-54 0 -104 18t-78 49l28 54q30 -29 69 -43.5t81 -14.5q79 0 124 49t47 140l11 -17h-267v60h268l-12 -17q-2 53 -21 93.5t-56.5 63.5t-93.5 23q-39 0 -79.5 -14t-70.5 -45l-28 56q31 30 81 47.5t102 17.5q75 0 129.5 -30.5t84.5 -88.5t30 -139q0 -82 -30.5 -140.5
t-85.5 -90t-129 -31.5zM282 609v86h86v-86h-86zM108 609v86h86v-86h-86z" />
    <glyph glyph-name="uni04EE" unicode="&#x4ee;" horiz-adv-x="663" 
d="M204 0l122 229l1 -32l-328 508h90l279 -434h-18l230 434h86l-375 -705h-87zM170 814v55h326v-55h-326z" />
    <glyph glyph-name="uni04EF" unicode="&#x4ef;" horiz-adv-x="539" 
d="M63 -227l-19 67q47 11 78.5 25.5t52.5 38.5t36 60l26 59l-2 -34l-219 513h88l181 -441h-26l179 441h85l-232 -544q-20 -48 -44 -80.5t-51.5 -53t-60.5 -32.5t-72 -19zM114 625v55h296v-55h-296z" />
    <glyph glyph-name="uni04F0" unicode="&#x4f0;" horiz-adv-x="663" 
d="M204 0l122 229l1 -32l-328 508h90l279 -434h-18l230 434h86l-375 -705h-87zM377 806v86h86v-86h-86zM203 806v86h86v-86h-86z" />
    <glyph glyph-name="uni04F1" unicode="&#x4f1;" horiz-adv-x="539" 
d="M63 -227l-19 67q47 11 78.5 25.5t52.5 38.5t36 60l26 59l-2 -34l-219 513h88l181 -441h-26l179 441h85l-232 -544q-20 -48 -44 -80.5t-51.5 -53t-60.5 -32.5t-72 -19zM306 609v86h86v-86h-86zM132 609v86h86v-86h-86z" />
    <glyph glyph-name="uni04F2" unicode="&#x4f2;" horiz-adv-x="663" 
d="M204 0l122 229l1 -32l-328 508h90l279 -434h-18l230 434h86l-375 -705h-87zM246 765l85 172h81l-119 -172h-47zM373 765l89 172h80l-122 -172h-47z" />
    <glyph glyph-name="uni04F3" unicode="&#x4f3;" horiz-adv-x="539" 
d="M63 -227l-19 67q47 11 78.5 25.5t52.5 38.5t36 60l26 59l-2 -34l-219 513h88l181 -441h-26l179 441h85l-232 -544q-20 -48 -44 -80.5t-51.5 -53t-60.5 -32.5t-72 -19zM303 551l53 202h75l-83 -202h-45zM175 551l54 202h75l-84 -202h-45z" />
    <glyph glyph-name="uni04F4" unicode="&#x4f4;" horiz-adv-x="692" 
d="M522 0v298q-33 -17 -82 -26.5t-99 -9.5q-138 0 -210.5 72t-72.5 215v156h82v-150q0 -114 52 -167t156 -53q47 0 91 9.5t83 29.5v331h82v-705h-82zM369 806v86h86v-86h-86zM195 806v86h86v-86h-86z" />
    <glyph glyph-name="uni04F5" unicode="&#x4f5;" horiz-adv-x="563" 
d="M404 0v204q-29 -17 -63 -26t-73 -9q-106 0 -157.5 49.5t-51.5 150.5v133h81v-127q0 -73 33.5 -105.5t105.5 -32.5q37 0 66 8t57 27v230h81v-502h-79zM316 609v86h86v-86h-86zM142 609v86h86v-86h-86z" />
    <glyph glyph-name="uni04F6" unicode="&#x4f6;" horiz-adv-x="556" 
d="M201 -157v157h-108v69h182v-226h-74zM88 0v705h453v-70h-371v-635h-82z" />
    <glyph glyph-name="uni04F7" unicode="&#x4f7;" horiz-adv-x="446" 
d="M170 -130v130h-86v64h156v-194h-70zM80 0v502h350v-65h-269v-437h-81z" />
    <glyph glyph-name="uni04F8" unicode="&#x4f8;" horiz-adv-x="873" 
d="M88 0v705h82v-311h190q115 0 177.5 -49t62.5 -147q0 -97 -62.5 -147.5t-177.5 -50.5h-272zM170 67h183q84 0 124.5 32.5t40.5 98.5q0 65 -40.5 97t-124.5 32h-183v-260zM703 0v705h83v-705h-83zM481 806v86h86v-86h-86zM307 806v86h86v-86h-86z" />
    <glyph glyph-name="uni04F9" unicode="&#x4f9;" horiz-adv-x="744" 
d="M80 0v502h81v-180h151q97 0 146.5 -41.5t49.5 -117.5q0 -51 -22.5 -87.5t-66 -56t-107.5 -19.5h-232zM161 58h144q61 0 93 25.5t32 78.5t-31.5 77.5t-93.5 24.5h-144v-206zM584 0v502h80v-502h-80zM417 609v86h86v-86h-86zM243 609v86h86v-86h-86z" />
    <glyph glyph-name="uni04FA" unicode="&#x4fa;" horiz-adv-x="594" 
d="M94 -182l-6 59l44 4q58 5 81 34t23 85h-110v321h-100v63h100v321h453v-70h-370v-251h190v-63h-190v-252h102v-59q0 -91 -41 -137t-128 -52z" />
    <glyph glyph-name="uni04FB" unicode="&#x4fb;" horiz-adv-x="468" 
d="M75 -182l-5 60l45 4q43 4 60.5 33t17.5 85h-89v218h-99v58h99v226h350v-64h-269v-162h150v-58h-150v-165h81v-43q0 -91 -38 -137t-105 -51z" />
    <glyph glyph-name="uni04FC" unicode="&#x4fc;" horiz-adv-x="652" 
d="M409 -185l-6 67q62 7 91 30.5t29 70.5q0 27 -17.5 61t-49.5 77l-146 198h32l-235 -319h-98l281 376v-31l-268 360h98l220 -301h-26l218 301h99l-269 -360v31l170 -227q39 -51 56.5 -91.5t17.5 -77.5q0 -72 -48 -113t-149 -52z" />
    <glyph glyph-name="uni04FD" unicode="&#x4fd;" horiz-adv-x="544" 
d="M337 -185l-15 60q56 7 82.5 26t26.5 56q0 27 -16 54.5t-55 75.5l-103 132h28l-174 -219h-95l225 279v-40l-213 263h97l161 -205h-29l161 205h96l-210 -261v36l122 -152q31 -38 49.5 -66t27 -52t8.5 -51q0 -40 -19.5 -70t-58.5 -47.5t-96 -23.5z" />
    <glyph glyph-name="uni04FE" unicode="&#x4fe;" horiz-adv-x="652" 
d="M9 0l281 376v-31l-268 360h98l220 -301h-26l218 301h99l-269 -360v31l281 -376h-98l-235 319h32l-235 -319h-98zM121 336v54h412v-54h-412z" />
    <glyph glyph-name="uni04FF" unicode="&#x4ff;" horiz-adv-x="544" 
d="M16 0l225 279v-40l-213 263h98l161 -205h-29l160 205h97l-210 -262v37l223 -277h-99l-172 219h30l-174 -219h-97zM66 229v54h412v-54h-412z" />
    <glyph glyph-name="uni0510" unicode="&#x510;" horiz-adv-x="654" 
d="M333 -9q-92 0 -153 24.5t-91 70t-30 107.5q0 74 43.5 119.5t120.5 54.5v-14q-67 15 -107 59.5t-40 109.5q0 59 30 102t88 66.5t141 23.5q79 0 147 -22.5t115 -65.5l-31 -64q-47 41 -105 60.5t-125 19.5q-88 0 -132.5 -34t-44.5 -94t41.5 -91.5t122.5 -31.5h163v-68h-178
q-84 0 -125.5 -30.5t-41.5 -95.5q0 -66 47.5 -100t148.5 -34q79 0 138 20.5t108 62.5l31 -64q-45 -42 -117 -66.5t-164 -24.5z" />
    <glyph glyph-name="uni0511" unicode="&#x511;" horiz-adv-x="508" 
d="M262 -9q-107 0 -161.5 40t-54.5 107q0 55 37.5 89t97.5 36l-1 -12q-52 6 -84.5 39t-32.5 81q0 67 55 103.5t146 36.5q57 0 109.5 -15t94.5 -47l-28 -55q-39 28 -81.5 41.5t-89.5 13.5q-62 0 -95.5 -22.5t-33.5 -62.5q0 -37 27 -58t75 -21h109v-60h-119q-53 0 -81 -21
t-28 -62q0 -42 33 -65t106 -23q55 0 102.5 14.5t83.5 44.5l27 -56q-35 -31 -91 -48.5t-122 -17.5z" />
    <glyph glyph-name="uni0512" unicode="&#x512;" horiz-adv-x="762" 
d="M512 -186q-16 0 -36.5 2t-41.5 6v69q19 -4 35.5 -6.5t29.5 -2.5q46 0 69.5 27.5t23.5 89.5v636h-322v-163q0 -109 -14 -189.5t-41.5 -138t-67 -96t-91.5 -63.5l-39 65q42 22 75 52.5t55.5 79.5t34 124.5t11.5 186.5v212h481v-705q0 -60 -17 -102t-53 -63t-92 -21z" />
    <glyph glyph-name="uni0513" unicode="&#x513;" horiz-adv-x="587" 
d="M292 -193l-5 63l45 3q47 4 71 32t24 80v453h-207v-67q0 -118 -16.5 -194t-53 -120.5t-97.5 -67.5l-30 63q35 16 58.5 39.5t37.5 60t20 91t6 131.5v128h362v-509q0 -57 -18 -96.5t-55.5 -61t-96.5 -25.5z" />
    <glyph glyph-name="uni051A" unicode="&#x51a;" horiz-adv-x="772" 
d="M576 -191q-29 19 -60 49t-58.5 67t-47.5 74l73 27q26 -52 67 -94.5t83 -73.5zM62 353q0 112 38.5 192.5t111 124.5t174.5 44q99 0 172 -44t112.5 -124.5t39.5 -191.5q0 -112 -40 -193t-112.5 -125.5t-171.5 -44.5q-102 0 -174 44.5t-111 125.5t-39 192zM149 353
q0 -136 60 -212.5t177 -76.5q112 0 174.5 76.5t62.5 212.5q0 137 -62 212.5t-175 75.5q-117 0 -177 -75.5t-60 -212.5z" />
    <glyph glyph-name="uni051B" unicode="&#x51b;" horiz-adv-x="610" 
d="M446 -216v334h11q-16 -59 -66 -93t-116 -34q-67 0 -117 31.5t-77.5 89.5t-27.5 139q0 82 27.5 140t77.5 89t117 31q68 0 117.5 -34.5t65.5 -93.5h-12l11 119h78q-3 -29 -5.5 -58.5t-2.5 -57.5v-602h-81zM291 57q72 0 114 49.5t42 144.5q0 96 -42 145.5t-114 49.5
q-71 0 -113.5 -49.5t-42.5 -145.5q0 -95 42.5 -144.5t113.5 -49.5z" />
    <glyph glyph-name="uni051C" unicode="&#x51c;" horiz-adv-x="1112" 
d="M280 0l-246 705h87l215 -635h-35l226 635h66l214 -635h-32l221 635h82l-248 -705h-74l-208 611h21l-217 -611h-72z" />
    <glyph glyph-name="uni051D" unicode="&#x51d;" horiz-adv-x="879" 
d="M218 0l-186 502h86l155 -442h-26l160 442h70l157 -442h-25l156 442h82l-187 -502h-78l-162 449h40l-163 -449h-79z" />
    <glyph glyph-name="uni0524" unicode="&#x524;" horiz-adv-x="807" 
d="M706 -157v157h-108v69h183v-226h-75zM88 0v705h590v-705h-83v635h-426v-635h-81z" />
    <glyph glyph-name="uni0525" unicode="&#x525;" horiz-adv-x="596" 
d="M524 -130v130h-86v64h156v-194h-70zM80 0v502h435v-502h-81v438h-273v-438h-81z" />
    <glyph glyph-name="uni0526" unicode="&#x526;" horiz-adv-x="734" 
d="M663 -157v157h-108v69h182v-226h-74zM88 0v705h82v-298q33 18 82 27t98 9q139 0 212 -71.5t73 -215.5v-156h-83v150q0 114 -52.5 167.5t-156.5 53.5q-45 0 -89.5 -8.5t-83.5 -30.5v-332h-82z" />
    <glyph glyph-name="uni0527" unicode="&#x527;" horiz-adv-x="605" 
d="M524 -130v130h-86v64h156v-194h-70zM83 0v736h81v-345h-12q21 59 70.5 89.5t114.5 30.5q90 0 134 -48.5t44 -146.5v-316h-81v311q0 70 -27.5 102t-88.5 32q-70 0 -112 -43t-42 -113v-289h-81z" />
    <glyph glyph-name="uni0528" unicode="&#x528;" horiz-adv-x="766" 
d="M9 -186q-16 0 -36.5 2t-41.5 6v69q19 -4 35.5 -6.5t29.5 -2.5q46 0 69.5 28t23.5 89v706h82v-312h426v312h81v-705h-81v323h-426v-323q0 -60 -17 -102t-53 -63t-92 -21z" />
    <glyph glyph-name="uni0529" unicode="&#x529;" horiz-adv-x="598" 
d="M-54 -193l-6 63l45 3q48 4 71.5 32t23.5 80v517h81v-210h277v210h80v-502h-80v227h-277v-234q0 -57 -18.5 -96.5t-56 -61t-96.5 -25.5z" />
    <glyph glyph-name="uni052E" unicode="&#x52e;" horiz-adv-x="804" 
d="M702 -157v157h-107v69h182v-226h-75zM56 -15l-39 65q42 22 75 52.5t55.5 79.5t34 124.5t11.5 186.5v212h481v-705h-82v635h-322v-163q0 -109 -14 -189.5t-41.5 -138t-67 -96t-91.5 -63.5z" />
    <glyph glyph-name="uni052F" unicode="&#x52f;" horiz-adv-x="589" 
d="M517 -130v130h-86v64h156v-194h-70zM53 -11l-30 63q35 16 58.5 39.5t37.5 60t20 91t6 131.5v128h362v-502h-80v438h-207v-67q0 -118 -16.5 -194t-53 -120.5t-97.5 -67.5z" />
    <glyph glyph-name="uni1E08" unicode="&#x1e08;" horiz-adv-x="684" 
d="M395 -9q-106 0 -180 44t-113.5 125t-39.5 193t39.5 192.5t113.5 124.5t180 44q75 0 134 -23t103 -67l-31 -66q-48 42 -95 61.5t-110 19.5q-121 0 -184 -75t-63 -211t63 -211.5t184 -75.5q63 0 110 19.5t95 62.5l31 -67q-44 -43 -103 -66.5t-134 -23.5zM394 -192
q-26 0 -49.5 5t-40.5 14l14 44q18 -8 34.5 -12t38.5 -4q27 0 43 9.5t16 27.5q0 28 -38 28q-11 0 -21.5 -1.5t-25.5 -7.5l-17 16l15 93h51l-13 -75l-24 6q11 3 23 5t22 2q36 0 60 -18t24 -50q0 -37 -31 -59.5t-81 -22.5zM361 765l118 172h91l-147 -172h-62z" />
    <glyph glyph-name="uni1E09" unicode="&#x1e09;" horiz-adv-x="495" 
d="M290 -9q-74 0 -128.5 32t-84 91t-29.5 140q0 82 30 139.5t84.5 87.5t127.5 30q48 0 93.5 -17t75.5 -48l-29 -58q-30 29 -65.5 43t-69.5 14q-78 0 -121 -49t-43 -143q0 -93 43 -144t121 -51q33 0 68.5 13t66.5 43l29 -57q-31 -32 -77 -49t-92 -17zM290 -192q-26 0 -49.5 5
t-40.5 14l14 44q18 -8 34.5 -12t38.5 -4q27 0 43 9.5t16 27.5q0 28 -38 28q-11 0 -21.5 -1.5t-25.5 -7.5l-17 16l15 93h51l-13 -75l-24 6q11 3 23 5t22 2q36 0 60 -18t24 -50q0 -37 -31 -59.5t-81 -22.5zM258 551l103 202h87l-132 -202h-58z" />
    <glyph glyph-name="uni1E0C" unicode="&#x1e0c;" horiz-adv-x="747" 
d="M88 0v705h234q117 0 198 -40.5t123 -119t42 -192.5q0 -113 -42 -192t-123 -120t-198 -41h-234zM171 71h145q144 0 214 70.5t70 211.5q0 142 -70 212t-214 70h-145v-564zM334 -187v88h92v-88h-92z" />
    <glyph glyph-name="uni1E0D" unicode="&#x1e0d;" 
d="M269 -9q-66 0 -116 31.5t-77.5 89.5t-27.5 139q0 82 27.5 140t77.5 89t116 31q68 0 117.5 -34t66.5 -92h-12v351h81v-736h-80v120h11q-16 -60 -66 -94.5t-118 -34.5zM286 57q71 0 114 49.5t43 144.5q0 96 -43 145.5t-114 49.5t-113.5 -49.5t-42.5 -145.5
q0 -95 42.5 -144.5t113.5 -49.5zM256 -187v88h92v-88h-92z" />
    <glyph glyph-name="uni1E0E" unicode="&#x1e0e;" horiz-adv-x="747" 
d="M88 0v705h234q117 0 198 -40.5t123 -119t42 -192.5q0 -113 -42 -192t-123 -120t-198 -41h-234zM171 71h145q144 0 214 70.5t70 211.5q0 142 -70 212t-214 70h-145v-564zM232 -156v55h296v-55h-296z" />
    <glyph glyph-name="uni1E0F" unicode="&#x1e0f;" 
d="M269 -9q-66 0 -116 31.5t-77.5 89.5t-27.5 139q0 82 27.5 140t77.5 89t116 31q68 0 117.5 -34t66.5 -92h-12v351h81v-736h-80v120h11q-16 -60 -66 -94.5t-118 -34.5zM286 57q71 0 114 49.5t43 144.5q0 96 -43 145.5t-114 49.5t-113.5 -49.5t-42.5 -145.5
q0 -95 42.5 -144.5t113.5 -49.5zM154 -156v55h296v-55h-296z" />
    <glyph glyph-name="uni1E14" unicode="&#x1e14;" horiz-adv-x="588" 
d="M88 0v705h450v-68h-369v-245h347v-69h-347v-254h369v-69h-450zM300 882l-115 141h85l86 -141h-56zM180 790v55h296v-55h-296z" />
    <glyph glyph-name="uni1E15" unicode="&#x1e15;" horiz-adv-x="544" 
d="M302 -9q-118 0 -186 68.5t-68 190.5q0 79 30 137.5t84 91t124 32.5q69 0 116 -29t72 -82.5t25 -126.5v-30h-389v51h336l-17 -13q0 80 -36 125t-107 45q-75 0 -117 -52.5t-42 -141.5v-9q0 -94 46.5 -142.5t130.5 -48.5q45 0 84.5 13.5t75.5 44.5l28 -57
q-33 -32 -83.5 -49.5t-106.5 -17.5zM138 571v55h296v-55h-296zM258 663l-115 142h85l86 -142h-56z" />
    <glyph glyph-name="uni1E16" unicode="&#x1e16;" horiz-adv-x="588" 
d="M88 0v705h450v-68h-369v-245h347v-69h-347v-254h369v-69h-450zM180 790v55h296v-55h-296zM300 882l86 141h85l-115 -141h-56z" />
    <glyph glyph-name="uni1E17" unicode="&#x1e17;" horiz-adv-x="544" 
d="M302 -9q-118 0 -186 68.5t-68 190.5q0 79 30 137.5t84 91t124 32.5q69 0 116 -29t72 -82.5t25 -126.5v-30h-389v51h336l-17 -13q0 80 -36 125t-107 45q-75 0 -117 -52.5t-42 -141.5v-9q0 -94 46.5 -142.5t130.5 -48.5q45 0 84.5 13.5t75.5 44.5l28 -57
q-33 -32 -83.5 -49.5t-106.5 -17.5zM138 571v55h296v-55h-296zM258 663l86 142h85l-115 -142h-56z" />
    <glyph glyph-name="uni1E1C" unicode="&#x1e1c;" horiz-adv-x="588" 
d="M88 0v705h450v-68h-369v-245h347v-69h-347v-254h369v-69h-450zM331 -192q-26 0 -49.5 5t-40.5 14l14 44q18 -8 34.5 -12t38.5 -4q27 0 43 9.5t16 27.5q0 28 -38 28q-11 0 -21.5 -1.5t-25.5 -7.5l-17 16l15 93h51l-13 -75l-24 6q11 3 23 5t22 2q36 0 60 -18t24 -50
q0 -37 -31 -59.5t-81 -22.5zM328 760q-71 0 -117 45t-52 123l51 7q5 -57 36 -89t82 -32t82.5 32t35.5 89l51 -7q-6 -78 -52 -123t-117 -45z" />
    <glyph glyph-name="uni1E1D" unicode="&#x1e1d;" horiz-adv-x="544" 
d="M302 -9q-118 0 -186 68.5t-68 190.5q0 79 30 137.5t84 91t124 32.5q69 0 116 -29t72 -82.5t25 -126.5v-30h-389v51h336l-17 -13q0 80 -36 125t-107 45q-75 0 -117 -52.5t-42 -141.5v-9q0 -94 46.5 -142.5t130.5 -48.5q45 0 84.5 13.5t75.5 44.5l28 -57
q-33 -32 -83.5 -49.5t-106.5 -17.5zM292 -192q-26 0 -49.5 5t-40.5 14l14 44q18 -8 34.5 -12t38.5 -4q27 0 43 9.5t16 27.5q0 28 -38 28q-11 0 -21.5 -1.5t-25.5 -7.5l-17 16l15 93h51l-13 -75l-24 6q11 3 23 5t22 2q36 0 60 -18t24 -50q0 -37 -31 -59.5t-81 -22.5zM286 549
q-45 0 -79 23t-53 65.5t-22 101.5l51 5q4 -67 30.5 -103.5t72.5 -36.5t72.5 36.5t30.5 103.5l51 -5q-2 -59 -21.5 -101.5t-53.5 -65.5t-79 -23z" />
    <glyph glyph-name="uni1E20" unicode="&#x1e20;" horiz-adv-x="731" 
d="M412 -9q-116 0 -194 43t-117 124t-39 194q0 112 41 193t118 125t186 44q77 0 133.5 -22.5t101.5 -66.5l-31 -65q-33 29 -63.5 46t-63.5 25.5t-77 8.5q-125 0 -191.5 -75.5t-66.5 -213.5q0 -139 64.5 -213t200.5 -74q50 0 95.5 9.5t88.5 27.5l-18 -45v248h-180v65h251
v-327q-43 -23 -108.5 -37t-130.5 -14zM237 814v55h326v-55h-326z" />
    <glyph glyph-name="uni1E21" unicode="&#x1e21;" horiz-adv-x="603" 
d="M300 -223q-65 0 -120 16t-99 49l24 61q31 -22 61 -35t62 -19.5t68 -6.5q74 0 112 39t38 111v147h10q-16 -59 -66 -93.5t-117 -34.5q-69 0 -119.5 30.5t-78 87t-27.5 133.5q0 76 27.5 132t78 86.5t119.5 30.5q68 0 117.5 -34t65.5 -94l-10 10l9 109h79q-4 -29 -6 -58.5
t-2 -57.5v-383q0 -112 -57.5 -169t-168.5 -57zM288 77q73 0 115 48.5t42 136.5t-42 136t-115 48q-72 0 -115 -48t-43 -136t43 -136.5t115 -48.5zM157 625v55h296v-55h-296z" />
    <glyph glyph-name="uni1E24" unicode="&#x1e24;" horiz-adv-x="766" 
d="M88 0v705h83v-312h425v312h82v-705h-82v322h-425v-322h-83zM338 -187v88h92v-88h-92z" />
    <glyph glyph-name="uni1E25" unicode="&#x1e25;" horiz-adv-x="586" 
d="M79 0v736h81v-345h-13q21 59 70.5 89.5t114.5 30.5q90 0 134 -48.5t44 -146.5v-316h-81v311q0 70 -27.5 102t-88.5 32q-70 0 -111.5 -43t-41.5 -113v-289h-81zM248 -187v88h92v-88h-92z" />
    <glyph glyph-name="uni1E2A" unicode="&#x1e2a;" horiz-adv-x="766" 
d="M88 0v705h83v-312h425v312h82v-705h-82v322h-425v-322h-83zM384 -215q-67 0 -109 40t-45 110l51 5q4 -48 30.5 -74.5t72.5 -26.5t72.5 26.5t30.5 74.5l51 -5q-3 -70 -44.5 -110t-109.5 -40z" />
    </font>
</defs>
</svg>
